Warning! Do NOT Download Without a VPN!
Your IP Address is .   Location is United States
Your Internet Provider and Government can track your download activities! Hide your IP ADDRESS with a VPN!
We strongly recommend using a VPN service to anonymize your torrent downloads. It's FREE!
START YOUR FREE TRIAL NOW!

The 100 S06 720p WEBRip LostFilm

Torrent Details

The 100 S06 720p WEBRip LostFilm

NAME
The 100 S06 720p WEBRip LostFilm.torrent
CATEGORY
Television
INFOHASH
1f3361309604cc9f7f5f56fd59e7aad3610a040d
SIZE
5.9 GB in 3 files
ADDED
Uploaded on 17-05-2019 by our crawler pet called "Spidey".
SWARM
4 seeders & 4 peers
RATING
No votes yet.

Please login to vote for this torrent.


Description

Сотня / The 100



Страна: США

Производство: Warner Bros. Television, CBS Television Studios, Bonanza Productions, Alloy Entertainment

Год выпуска: 2019

Жанр: фантастика, драма, детектив

Продолжительность: х ~00:43:00



Режиссеры: Дин Уайт, Эд Фрэйман, Алекс Калимниос

В ролях: Элайза Тейлор, Пейдж Турко, Мари Авгеропулос, Боб Морли, Линдси Морган, Ричард Хэрмон, Тася Телес, Шэннон Кук-Чун, Джарод Джозеф



Описание: События в сериале начинают разворачиваться по прошествии девяносто семи лет после того, как всю цивилизацию уничтожила страшная атомная война. Высоко в космосе на орбите Земли летает большой космический корабль, где находятся те, кто выжил после страшной катастрофы. Именно с этого последнего пристанища людей на Землю отправляют космический челнок, на котором находятся сто малолетних преступников…







Перевод: Профессиональный (многоголосый, закадровый) | LostFilm

Субтитры: английские (full + SDH)



Качество: WEBRip 720p

Формат: МКV

Видео кодек: AVC

Аудио кодек: АС3

Видео: 1280x720 (16:9), 23.976 fps, MPEG-4 AVC ~6 000 kbps avg

Аудио №1: 48.0 kHz, AC3 Dolby Digital, 2/0 (L,R) ch, ~384 kbps | RUS

Аудио №2: 48.0 kHz, AC3 Dolby Digital, 2/0 (L,R) ch, ~384 kbps | ENG

Формат субтитров: UTF-8 Plain Text



Дата премьеры (мир): 30 апреля 2019







Релиз от: kogesan

Media InfoGeneral

Уникальный идентификатор : 160072487700125459122536708596312382539 (0x786CD6F8C504C3F3B552BD059AA11C4B)

Полное имя : The.100.S06E01.720p.WEBRip.LostFilm.mkv

Формат : Matroska

Версия формата : Version 4

Размер файла : 1,97 Гбайт

Продолжительность : 42 м. 22 с.

Общий поток : 6660 Кбит/сек

Название фильма : The 100 06x01 (Sanctum) - release by messafan for CasStudio

Дата кодирования : UTC 2019-05-03 08:23:38

Программа кодирования : mkvmerge v31.0.0 ('Dolores In A Shoestand') 64-bit

Библиотека кодирования : libebml v1.3.6 + libmatroska v1.4.9



Видео

Идентификатор : 1

Формат : AVC

Формат/Информация : Advanced Video Codec

Профиль формата : [email protected]

Настройки формата : CABAC / 4 Ref Frames

Параметр CABAC формата : Да

Параметр RefFrames формата : 4 кадра

Идентификатор кодека : V_MPEG4/ISO/AVC

Продолжительность : 42 м. 22 с.

Вид битрейта : Постоянный

Битрейт : 6000 Кбит/сек

Ширина : 1280 пикселей

Высота : 720 пикселей

Соотношение сторон : 16:9

Режим частоты кадров : Постоянный

Частота кадров : 23,976 (24000/1001) кадра/сек

Цветовое пространство : YUV

Субдискретизация насыщенности : 4:2:0

Битовая глубина : 8 бит

Тип развёртки : Прогрессивная

Бит/(Пиксели*Кадры) : 0.272

Размер потока : 1,74 Гбайт (88%)

Default : Да

Forced : Нет

Цветовой диапазон : Limited

Основные цвета : BT.709

Характеристики трансфера : BT.709

Коэффициенты матрицы : BT.709



Аудио #1

Идентификатор : 2

Формат : AC-3

Формат/Информация : Audio Coding 3

Коммерческое название : Dolby Digital

Идентификатор кодека : A_AC3

Продолжительность : 42 м. 22 с.

Вид битрейта : Постоянный

Битрейт : 384 Кбит/сек

Каналы : 2 канала

Channel layout : L R

Частота : 48,0 КГц

Частота кадров : 31,250 кадров/сек (1536 SPF)

Битовая глубина : 16 бит

Метод сжатия : С потерями

Размер потока : 116 Мбайт (6%)

Язык : Russian

Default : Да

Forced : Нет



Аудио #2

Идентификатор : 3

Формат : AC-3

Формат/Информация : Audio Coding 3

Коммерческое название : Dolby Digital

Идентификатор кодека : A_AC3

Продолжительность : 42 м. 22 с.

Вид битрейта : Постоянный

Битрейт : 384 Кбит/сек

Каналы : 2 канала

Channel layout : L R

Частота : 48,0 КГц

Частота кадров : 31,250 кадров/сек (1536 SPF)

Битовая глубина : 16 бит

Метод сжатия : С потерями

Размер потока : 116 Мбайт (6%)

Язык : English

Default : Нет

Forced : Нет



Текст #1

Идентификатор : 4

Формат : UTF-8

Идентификатор кодека : S_TEXT/UTF8

Идентификатор кодека/Информация : UTF-8 Plain Text

Продолжительность : 41 м. 52 с.

Битрейт : 61 бит/сек

ElementCount : 667

Размер потока : 18,9 Кбайт (0%)

Язык : English

Default : Нет

Forced : Нет



Текст #2

Идентификатор : 5

Формат : UTF-8

Идентификатор кодека : S_TEXT/UTF8

Идентификатор кодека/Информация : UTF-8 Plain Text

Продолжительность : 41 м. 52 с.

Битрейт : 63 бит/сек

ElementCount : 706

Размер потока : 19,4 Кбайт (0%)

Заголовок : SDH

Язык : English

Default : Нет

Forced : НетСкриншоты

Discussion

Comments 0

Post Your Comment

Files in this torrent

FILENAMESIZE
The.100.S06E01.720p.WEBRip.LostFilm.mkv2 GB
The.100.S06E02.720p.WEBRip.LostFilm.mkv2 GB
The.100.S06E03.720p.WEBRip.LostFilm.mkv2 GB

Alternative Torrents for 'LostFilm'.

TORRENT NAME ADDED SIZE SEEDS PEERS HEALTH
5/8/2019 4.4 GB 96 3
5/25/2019 4.2 GB 82 3
3/14/2019 5.4 GB 58 4
5/20/2019 3.1 GB 56 3
5/25/2019 714 MB 46 0
5/28/2019 787 MB 45 0
4/30/2019 6.9 GB 44 6
5/28/2019 2.4 GB 42 0
3/13/2019 8.4 GB 41 13
4/27/2019 9.4 GB 41 12
3/5/2019 11.8 GB 35 11
3/8/2019 14 GB 34 8
3/20/2019 7 GB 34 2
5/25/2019 728 MB 33 0
6/4/2019 1.6 GB 33 6