Enemy At The Gates (2001) HD-DVD Remux 1080p

Torrent Details

Enemy at the Gates (2001) HD-DVD Remux 1080p

NAME
Enemy at the Gates (2001) HD-DVD Remux 1080p.torrent
CATEGORY
Movies
INFOHASH
633981647c6f1685145bd20d1db357c48d8a1cf5
SIZE
23.1 GB in 1 file
ADDED
Uploaded on 18-05-2019 by our crawler pet called "Spidey".
SWARM
0 seeders & 0 peers
RATING
This torrent has a bad rating! This torrent has BAD rating with 0 votes.

Please login to vote for this torrent.


Description

Название: Враг у ворот

Оригинальное название: Enemy at the Gates

Год выхода: 2001

Жанр: Военный, драма, история

Режиссер: Жан-Жак Анно

В ролях: Джуд Лоу, Эд Харрис, Рейчел Вайс, Джозеф Файнс, Боб Хоскинс, Рон Перлман, Ева Маттес, Гэбриел Томсон, Маттиас Хабих, Софи РоизО фильме:

1942 год, разгар Сталинградской битвы. Немецкое командование направляет на передовую своего лучшего стрелка, майора Кенига с особым заданием. Этот опытный и терпеливый профессионал — единственный, кто может попытаться справиться с русским «ангелом смерти» — неуловимым снайпером Василием Зайцевым. Зайцев — легенда и икона для защитников Сталинграда. Каждый день он выносит смертный приговор десяткам захватчиков, попавших в перекрестье его прицела. Между двумя уникальными снайперами начинается смертельная схватка, победителем из которой будет суждено выйти лишь одному…





Страна: США, Франция, Германия, Великобритания, Ирландия

Студия: Paramount Pictures

Продолжительность: 02:10:54

Перевод: профессиональный (дублированный), профессиональный (многоголосый закадровый), профессиональный (двухголосый, закадровый), авторский (одноголосый, закадровый)

Субтитры: русские, английские

Формат: MKV

Качество: HD-DVD Remux 1080p | FRA Transfer | Open Matte

Видео: VC-1 / 1920х1080 / 20,1 Mbps / 23,976 fps

Звук:

#1. Russian: AC3, 384 Кбит/сек, 6 каналов, 48.0 КГц - Многоголосый (Universal)

#2. Russian: AC3, 448 Кбит/сек, 6 каналов, 48.0 КГц - Многоголосый (R1)

#3. Russian: AC3, 224 Кбит/сек, 2 канала, 48.0 КГц - Многоголосый (Премьер)

#4. Russian: AC3, 224 Кбит/сек, 2 канала, 48.0 КГц - Дубляж (Пифагор)

#5. Russian: AC3, 384 Кбит/сек, 6 каналов, 48.0 КГц - Авторский (Живов)

#6. Russian: DTS, 1536 Кбит/сек, 6 каналов, 48.0 КГц - Двухголосый (Гланц и Королёва)

#7. English: DTS-HD MA, 1576 Кбит/сек, 6 каналов, 48 kHz - Оригинал (Английский)



MediaInfoFormat : Matroska

Format version : Version 2

File size : 23.1 GiB

Duration : 2 h 11 min

Overall bit rate : 25.2 Mb/s

Movie name : Враг у ворот (2001) HD-DVD Remux 1080p | FRA Transfer | Open Matte

Encoded date : UTC 2017-11-03 20:42:36

Writing application : mkvmerge v4.9.1 ('Ich will') сборка от Jul 11 2011 23:53:15

Writing library : libebml v1.2.1 + libmatroska v1.1.1



Video

ID : 1

Format : VC-1

Format profile : [email protected]

Codec ID : V_MS/VFW/FOURCC / WVC1

Codec ID/Hint : Microsoft

Duration : 2 h 11 min

Width : 1 920 pixels

Height : 1 080 pixels

Display aspect ratio : 16:9

Frame rate mode : Constant

Frame rate : 23.976 (24000/1001) FPS

Color space : YUV

Chroma subsampling : 4:2:0

Bit depth : 8 bits

Scan type : Progressive

Scan order : Bottom Field First

Compression mode : Lossy

Title : Stalingrad (Enemy at the Gates)

Language : English

Default : Yes

Forced : No



Audio #1

ID : 2

Format : AC-3

Format/Info : Audio Coding 3

Format settings, Endianness : Big

Codec ID : A_AC3

Duration : 2 h 11 min

Bit rate mode : Constant

Bit rate : 384 kb/s

Channel(s) : 6 channels

Channel positions : Front: L C R, Side: L R, LFE

Sampling rate : 48.0 kHz

Frame rate : 31.250 FPS (1536 SPF)

Bit depth : 16 bits

Compression mode : Lossy

Stream size : 360 MiB (2%)

Title : AC3, 384 Кбит/сек, 6 каналов, 48.0 КГц - Многоголосый (Universal)

Language : Russian

Service kind : Complete Main

Default : Yes

Forced : No



Audio #2

ID : 3

Format : AC-3

Format/Info : Audio Coding 3

Format settings, Endianness : Big

Codec ID : A_AC3

Duration : 2 h 11 min

Bit rate mode : Constant

Bit rate : 448 kb/s

Channel(s) : 6 channels

Channel positions : Front: L C R, Side: L R, LFE

Sampling rate : 48.0 kHz

Frame rate : 31.250 FPS (1536 SPF)

Bit depth : 16 bits

Compression mode : Lossy

Stream size : 420 MiB (2%)

Title : AC3, 448 Кбит/сек, 6 каналов, 48.0 КГц - Многоголосый (R1)

Language : Russian

Service kind : Complete Main

Default : No

Forced : No



Audio #3

ID : 4

Format : AC-3

Format/Info : Audio Coding 3

Format settings, Endianness : Big

Codec ID : A_AC3

Duration : 2 h 11 min

Bit rate mode : Constant

Bit rate : 224 kb/s

Channel(s) : 2 channels

Channel positions : Front: L R

Sampling rate : 48.0 kHz

Frame rate : 31.250 FPS (1536 SPF)

Bit depth : 16 bits

Compression mode : Lossy

Stream size : 210 MiB (1%)

Title : AC3, 224 Кбит/сек, 2 канала, 48.0 КГц - Многоголосый (Премьер)

Language : Russian

Service kind : Complete Main

Default : No

Forced : No



Audio #4

ID : 5

Format : AC-3

Format/Info : Audio Coding 3

Format settings, Endianness : Big

Codec ID : A_AC3

Duration : 2 h 11 min

Bit rate mode : Constant

Bit rate : 192 kb/s

Channel(s) : 2 channels

Channel positions : Front: L R

Sampling rate : 48.0 kHz

Frame rate : 31.250 FPS (1536 SPF)

Bit depth : 16 bits

Compression mode : Lossy

Stream size : 180 MiB (1%)

Title : AC3, 224 Кбит/сек, 2 канала, 48.0 КГц - Дубляж (Пифагор)

Language : Russian

Service kind : Complete Main

Default : No

Forced : No



Audio #5

ID : 6

Format : AC-3

Format/Info : Audio Coding 3

Format settings, Endianness : Big

Codec ID : A_AC3

Duration : 2 h 11 min

Bit rate mode : Constant

Bit rate : 384 kb/s

Channel(s) : 6 channels

Channel positions : Front: L C R, Side: L R, LFE

Sampling rate : 48.0 kHz

Frame rate : 31.250 FPS (1536 SPF)

Bit depth : 16 bits

Compression mode : Lossy

Stream size : 360 MiB (2%)

Title : AC3, 384 Кбит/сек, 6 каналов, 48.0 КГц - Авторский (Живов)

Language : Russian

Service kind : Complete Main

Default : No

Forced : No



Audio #6

ID : 7

Format : DTS

Format/Info : Digital Theater Systems

Mode : 16

Format settings, Endianness : Big

Codec ID : A_DTS

Duration : 2 h 11 min

Bit rate mode : Constant

Bit rate : 1 509 kb/s

Channel(s) : 6 channels

Channel positions : Front: L C R, Side: L R, LFE

Sampling rate : 48.0 kHz

Frame rate : 93.750 FPS (512 SPF)

Bit depth : 24 bits

Compression mode : Lossy

Stream size : 1.38 GiB (6%)

Title : DTS, 1536 Кбит/сек, 6 каналов, 48.0 КГц - Двухголосый (Гланц и Королёва)

Language : Russian

Default : No

Forced : No



Audio #7

ID : 8

Format : DTS

Format/Info : Digital Theater Systems

Format profile : MA / Core

Mode : 16

Format settings, Endianness : Big

Codec ID : A_DTS

Duration : 2 h 11 min

Bit rate mode : Variable / Constant

Bit rate : Unknown / 1 509 kb/s

Channel(s) : 6 channels

Channel positions : Front: L C R, Side: L R, LFE

Sampling rate : 48.0 kHz

Frame rate : 93.750 FPS (512 SPF)

Bit depth : 16 bits

Compression mode : Lossless / Lossy

Title : DTS-HD Master Audio, 1576 Кбит/сек, 48 kHz - Оригинал

Language : English

Default : No

Forced : No



Text #1

ID : 9

Format : UTF-8

Codec ID : S_TEXT/UTF8

Codec ID/Info : UTF-8 Plain Text

Title : Full

Language : Russian

Default : No

Forced : No



Text #2

ID : 10

Format : UTF-8

Codec ID : S_TEXT/UTF8

Codec ID/Info : UTF-8 Plain Text

Title : Full

Language : English

Default : No

Forced : No

Скриншоты

BD vs HD-DVD

----------------------- BD ------------------------------------------------ HD-DVD ------------------









Discussion

Comments 0

Post Your Comment

Files in this torrent

FILENAMESIZE
Enemy at the Gates (2001) HD-DVD Remux 1080p.mkv23.1 GB

Alternative Torrents for 'Enemy at Gates HDDVD Remux'.

TORRENT NAMEADDEDSIZESEEDSPEERSHEALTH
8/28/201824.5 GB00