Warning! Do NOT Download Without a VPN!
Your IP Address is .   Location is United States
Your Internet Provider and Government can track your download activities! Hide your IP ADDRESS with a VPN!
We strongly recommend using a VPN service to anonymize your torrent downloads. It's FREE!
START YOUR FREE TRIAL NOW!

18+ Bedroom Eyes 2017 2017 720p HDRip AAC With Sample

Torrent Details

18+ Bedroom Eyes 2017  2017 720p HDRip AAC With Sample

NAME
18+ Bedroom Eyes 2017 2017 720p HDRip AAC With Sample.torrent
CATEGORY
Movies
INFOHASH
a1264f4e6aee49a94eca9f432f5dfbf99b36a7fa
SIZE
930 MB in 3 files
ADDED
Uploaded on 18-05-2019 by our crawler pet called "Spidey".
SWARM
42 seeders & 13 peers
RATING
No votes yet.

Please login to vote for this torrent.


Description

Quote:



******************************Thumbnail:**********************







******************************Screenshots:********************



Screenshot 1



Screenshot 2



Screenshot 3



Screenshot 4



Screenshot 5



Screenshot 6



Screenshot 7



Screenshot 8



Screenshot 9



Screenshot 0





******************************************************



18+.Bedroom.Eyes.2017. 2017.720p.HDRip.AAC.With.Sample.LLG.mp4

Format                                   : MPEG-4

Format profile                           : Base Media

Codec ID                                 : isom (isom/iso2/avc1/mp41)

File size                                : 910 MiB

Duration                                 : 1 h 21 min

Overall bit rate                         : 1 567 kb/s





Video

ID                                       : 1

Format                                   : AVC

Format/Info                              : Advanced Video Codec

Format profile                           : [email protected]

Format settings                          : CABAC / 4 Ref Frames

Format settings, CABAC                   : Yes

Format settings, Reference frames        : 4 frames

Codec ID                                 : avc1

Codec ID/Info                            : Advanced Video Coding

Duration                                 : 1 h 21 min

Bit rate                                 : 1 500 kb/s

Width                                    : 1 280 pixels

Height                                   : 720 pixels

Display aspect ratio                     : 16:9

Frame rate mode                          : Constant

Frame rate                               : 25.000 FPS

Color space                              : YUV

Chroma subsampling                       : 4:2:0

Bit depth                                : 8 bits

Scan type                                : Progressive

Bits/(Pixel*Frame)                       : 0.065

Stream size                              : 868 MiB (95%)



Audio

ID                                       : 2

Format                                   : AAC LC

Format/Info                              : Advanced Audio Codec Low Complexity

Codec ID                                 : mp4a-40-2

Duration                                 : 1 h 21 min

Bit rate mode                            : Constant

Bit rate                                 : 64.7 kb/s

Channel(s)                               : 1 channel

Channel layout                           : C

Sampling rate                            : 44.1 kHz

Frame rate                               : 43.066 FPS (1024 SPF)

Compression mode                         : Lossy

Stream size                              : 37.6 MiB (4%)



********************************************************

Discussion

Comments 0

Post Your Comment

Files in this torrent

FILENAMESIZE
18+.Bedroom.Eyes.2017. 2017.720p.HDRip.AAC.With.Sample.LLG.mp4910.4 MB
SAMPLE 2.mp413.3 MB
SAMPLE.mkv6.2 MB

Alternative Torrents for 'Bedroom Eyes AAC With Sample'.

TORRENT NAME ADDED SIZE SEEDS PEERS HEALTH
12/19/2018 917 MB 0 0