Warning! Do NOT Download Without a VPN!
Your IP Address is .   Location is United States
Your Internet Provider and Government can track your download activities! Hide your IP ADDRESS with a VPN!
We strongly recommend using a VPN service to anonymize your torrent downloads. It's FREE!
START YOUR FREE TRIAL NOW!

Marvels Agents Of S H I E L D S06E02 1080p AMZN WEBrip X265 DDP5 1 D0ct0rLew[SEV]

Torrent Details

Marvels Agents of S H I E L D S06E02 1080p AMZN WEBrip x265 DDP5 1 D0ct0rLew[SEV]

NAME
Marvels Agents of S H I E L D S06E02 1080p AMZN WEBrip x265 DDP5 1 D0ct0rLew[SEV].torrent
CATEGORY
Television
INFOHASH
e8945d41a6f6f4fa8d208f08ccfc1c61801068e7
SIZE
1.3 GB in 1 file
ADDED
Uploaded on 19-05-2019 by our crawler pet called "Spidey".
SWARM
6 seeders & 0 peers
RATING
No votes yet.

Please login to vote for this torrent.


Description

''

''''



''''''''



Media Information



Unique ID                                : 107773099887543592061170441122978504772 (0x511458122C14F24DFA074B372A14A044)

Complete name                            : Marvels Agents of S.H.I.E.L.D S06E02 1080p AMZN WEBrip x265 DDP5.1 D0ct0rLew[SEV].mkv

Format                                   : Matroska

Format version                           : Version 4

File size                                : 1.33 GiB

Duration                                 : 43 min 0 s

Overall bit rate                         : 4 431 kb/s

Encoded date                             : UTC 2019-05-19 12:32:31

Writing application                      : mkvmerge v29.0.0 ('Like It Or Not') 64-bit

Writing library                          : libebml v1.3.6 + libmatroska v1.4.9



Video

ID                                       : 2

Format                                   : HEVC

Format/Info                              : High Efficiency Video Coding

Format profile                           : Main [email protected]@Main

Codec ID                                 : V_MPEGH/ISO/HEVC

Duration                                 : 43 min 0 s

Bit rate                                 : 3 789 kb/s

Width                                    : 1 920 pixels

Height                                   : 1 080 pixels

Display aspect ratio                     : 16:9

Frame rate mode                          : Constant

Frame rate                               : 23.976 (24000/1001) FPS

Color space                              : YUV

Chroma subsampling                       : 4:2:0

Bit depth                                : 10 bits

Bits/(Pixel*Frame)                       : 0.076

Stream size                              : 1.14 GiB (86%)

Writing library                          : x265 3.0_Au+14-c7e5878bdd31:[Windows][MSVC 1920][64 bit] 10bit

Encoding settings                        : cpuid=1111039 / frame-threads=3 / numa-pools=8 / wpp / no-pmode / no-pme / no-psnr / no-ssim / log-level=2 / input-csp=1 / input-res=1920x1080 / interlace=0 / total-frames=61876 / level-idc=0 / high-tier=1 / uhd-bd=0 / ref=4 / no-allow-non-conformance / no-repeat-headers / annexb / no-aud / no-hrd / info / hash=0 / no-temporal-layers / open-gop / min-keyint=23 / keyint=250 / gop-lookahead=0 / bframes=8 / b-adapt=2 / b-pyramid / bframe-bias=0 / rc-lookahead=90 / lookahead-slices=4 / scenecut=40 / radl=0 / no-splice / no-intra-refresh / ctu=64 / min-cu-size=8 / rect / amp / max-tu-size=32 / tu-inter-depth=1 / tu-intra-depth=1 / limit-tu=0 / rdoq-level=2 / dynamic-rd=0.00 / no-ssim-rd / signhide / no-tskip / nr-intra=0 / nr-inter=0 / no-constrained-intra / strong-intra-smoothing / max-merge=3 / limit-refs=3 / limit-modes / me=3 / subme=7 / merange=92 / temporal-mvp / weightp / no-weightb / no-analyze-src-pics / deblock=3:3 / sao / no-sao-non-deblock / rd=4 / no-early-skip / rskip / no-fast-intra / no-tskip-fast / no-cu-lossless / no-b-intra / no-splitrd-skip / rdpenalty=0 / psy-rd=1.00 / psy-rdoq=1.00 / no-rd-refine / no-lossless / cbqpoffs=0 / crqpoffs=0 / rc=crf / crf=19.5 / qcomp=0.60 / qpstep=4 / stats-write=0 / stats-read=0 / ipratio=1.40 / pbratio=1.30 / aq-mode=3 / aq-strength=1.00 / cutree / zone-count=0 / no-strict-cbr / qg-size=32 / no-rc-grain / qpmax=69 / qpmin=0 / no-const-vbv / sar=0 / overscan=0 / videoformat=5 / range=0 / colorprim=2 / transfer=2 / colormatrix=2 / chromaloc=0 / display-window=0 / max-cll=0,0 / min-luma=0 / max-luma=1023 / log2-max-poc-lsb=8 / vui-timing-info / vui-hrd-info / slices=1 / no-opt-qp-pps / no-opt-ref-list-length-pps / no-multi-pass-opt-rps / scenecut-bias=0.05 / no-opt-cu-delta-qp / no-aq-motion / no-hdr / no-hdr-opt / no-dhdr10-opt / no-idr-recovery-sei / analysis-reuse-level=5 / scale-factor=0 / refine-intra=0 / refine-inter=0 / refine-mv=0 / refine-ctu-distortion=0 / no-limit-sao / ctu-info=0 / no-lowpass-dct / refine-analysis-type=0 / copy-pic=1 / max-ausize-factor=1.0 / no-dynamic-refine / no-single-sei / no-hevc-aq / no-svt / qp-adaptation-range=1.00

Default                                  : Yes

Forced                                   : No



Audio

ID                                       : 3

Format                                   : E-AC-3

Format/Info                              : Enhanced AC-3

Commercial name                          : Dolby Digital Plus

Codec ID                                 : A_EAC3

Duration                                 : 43 min 0 s

Bit rate mode                            : Constant

Bit rate                                 : 640 kb/s

Channel(s)                               : 6 channels

Channel layout                           : L R C LFE Ls Rs

Sampling rate                            : 48.0 kHz

Frame rate                               : 31.250 FPS (1536 SPF)

Compression mode                         : Lossy

Stream size                              : 197 MiB (14%)

Language                                 : English

Service kind                             : Complete Main

Default                                  : Yes

Forced                                   : No



Text

ID                                       : 1

Format                                   : UTF-8

Codec ID                                 : S_TEXT/UTF8

Codec ID/Info                            : UTF-8 Plain Text

Duration                                 : 42 min 51 s

Bit rate                                 : 67 b/s

Count of elements                        : 720

Stream size                              : 21.2 KiB (0%)

Language                                 : English

Default                                  : Yes

Forced                                   : No





We have no issue with individuals posting or re-uploading our torrents on a platform we aren't on. However, if this is something you'd like to do, please do so in a 'as-is' format. We ask that you do not create a new torrent, include all descriptions you see above including the SEV logo, tags, notes and screenshots.

If you'd like to become a permanent poster on a website we don't post to, feel free to get in contact with a Sublime Encoded Video member.



We are recruiting/training new members for SEV & seedbox providers as well as people to help out with subtitles.

As you already know, we deliver quality, so you know the standard.

If you're interested, feel free to contact any of the team members.

Discussion

Comments 0

Post Your Comment

Files in this torrent

FILENAMESIZE
Marvels Agents of S.H.I.E.L.D S06E02 1080p AMZN WEBrip x265 DDP5.1 D0ct0rLew[SEV].mkv1.3 GB

Alternative Torrents for 'Marvels Agents of SE DDP DctrLew'.

TORRENT NAME ADDED SIZE SEEDS PEERS HEALTH
5/30/2019 2 GB 5741 475
5/30/2019 1 GB 3691 440
5/28/2019 2 GB 3294 226
6/10/2019 2.9 GB 2595 922
6/9/2019 1.5 GB 2214 888
6/15/2019 953 MB 2209 1139
6/15/2019 758 MB 2181 1550
5/28/2019 1 GB 2109 524
5/20/2019 1.9 GB 1844 76
5/25/2019 614 MB 1496 37
6/15/2019 1.4 GB 1427 957
4/29/2019 702 MB 1267 17
6/14/2019 1.4 GB 1163 68
6/14/2019 1.3 GB 1155 188
4/15/2019 398 MB 1126 26