Warning! Do NOT Download Without a VPN!
Your IP Address is .   Location is United States
Your Internet Provider and Government can track your download activities! Hide your IP ADDRESS with a VPN!
We strongly recommend using a VPN service to anonymize your torrent downloads. It's FREE!
START YOUR FREE TRIAL NOW!

Game Of Thrones S08 1080p WEB-DL Rus Eng EniaHD

Torrent Details

Game of Thrones S08 1080p WEB-DL Rus Eng EniaHD

NAME
Game of Thrones S08 1080p WEB-DL Rus Eng EniaHD.torrent
CATEGORY
Television
INFOHASH
d15269972dfd5ba06905705378cb5ea8e92cba24
SIZE
24 GB in 6 files
ADDED
Uploaded on 20-05-2019 by our crawler pet called "Spidey".
SWARM
55 seeders & 117 peers
RATING
No votes yet.

Please login to vote for this torrent.


Description

Игра престолов / Game of Thrones



Страна: США Великобритания

Производство: Bighead Littlehead, Generator Entertainment, Television 360, Home Box Office (HBO)

Год выпуска: 2019

Жанр: фэнтези, боевик, драма, мелодрама, приключения

Продолжительность: 6х ~00:56:00



Режиссеры: Дэвид Наттер, Мигель Сапочник, Дэвид Бениофф, Д.Б. Уайсс

В ролях: Питер Динклэйдж, Николай Костер-Вальдау, Лина Хиди, Эмилия Кларк, Кит Харингтон, Софи Тернер, Мэйси Уильямс, Лиам Каннингэм, Алфи Аллен



Описание: К концу подходит время благоденствия, и лето, длившееся почти десятилетие, угасает. Вокруг средоточия власти Семи королевств, Железного трона, зреет заговор, и в это непростое время король решает искать поддержки у друга юности Эддарда Старка. В мире, где все — от короля до наемника — рвутся к власти, плетут интриги и готовы вонзить нож в спину, есть место и благородству, состраданию и любви. Между тем, никто не замечает пробуждение тьмы из легенд далеко на Севере — и лишь Стена защищает живых к югу от неё...







Перевод: Профессиональный (многоголосый, закадровый) | Novamedia по заказу Amedia

Субтитры: русские (forced + full), английские (SDH)



Качество: WEB-DL 1080p | | исходник - Game.of.Thrones.S08.1080p.AMZN.WEB-DL.DDP5.1.H.264-GoT

Формат: МКV

Видео кодек: AVC

Аудио кодек: АС3 | E-AC3

Видео: 1920x1080 (16:9), 23.976 fps, MPEG-4 AVC ~6 596 kbps avg

Аудио №1: 48.0 kHz, AC3 Dolby Digital, 2/0 (L,R) ch, ~192 kbps | RUS

Аудио №2: 48.0 kHz, Enhanced Audio Coding 3, 3/2 (L,C,R,l,r) + LFE ch, ~640 kbps | ENG

Формат субтитров: UTF-8 Plain Text



Дата премьеры (мир): 14 апреля 2019







Дополнительная информацияРелиз от:





Media InfoGeneral

Полное имя : Game.of.Thrones.S08E01.Winterfell.1080p.WEB-DL.Rus.Eng.EniaHD.mkv

Формат : Matroska

Версия формата : Version 4

Размер файла : 2,90 Гбайт

Продолжительность : 55 м. 47 с.

Общий поток : 7428 Кбит/сек

Название фильма : Винтерфелл / Winterfell

Трек/Положение : 1

Трек/Всего : 6

Описание : Arriving at Winterfell, Jon and Daenerys struggle to unite a divided North. Jon gets some big news.

Дата выпуска : UTC 2019-04-14 21:00:00

Дата кодирования : UTC 2019-04-15 11:18:19

Программа кодирования : mkvmerge v32.0.0 ('Astral Progressions') 32-bit

Библиотека кодирования : libebml v1.3.7 + libmatroska v1.5.0

Авторское право : EniaHD

Attachments : poster.Game.of.Thrones.jpg



Видео

Идентификатор : 1

Формат : AVC

Формат/Информация : Advanced Video Codec

Профиль формата : [email protected]

Настройки формата : CABAC / 4 Ref Frames

Параметр CABAC формата : Да

Параметр RefFrames формата : 4 кадра

Идентификатор кодека : V_MPEG4/ISO/AVC

Продолжительность : 55 м. 45 с.

Вид битрейта : Постоянный

Битрейт : 6596 Кбит/сек

Номинальный битрейт : 10000 Кбит/сек

Ширина : 1920 пикселей

Высота : 1080 пикселей

Соотношение сторон : 16:9

Режим частоты кадров : Постоянный

Частота кадров : 23,976 (24000/1001) кадра/сек

Цветовое пространство : YUV

Субдискретизация насыщенности : 4:2:0

Битовая глубина : 8 бит

Тип развёртки : Прогрессивная

Бит/(Пиксели*Кадры) : 0.133

Размер потока : 2,57 Гбайт (89%)

Заголовок : Game.of.Thrones.S08E01.Winterfell.1080p.WEB-DL.Rus.Eng.EniaHD

Язык : English

Default : Да

Forced : Нет

Цветовой диапазон : Limited

Основные цвета : BT.709

Характеристики трансфера : BT.709

Коэффициенты матрицы : BT.709



Аудио #1

Идентификатор : 2

Формат : AC-3

Формат/Информация : Audio Coding 3

Коммерческое название : Dolby Digital

Идентификатор кодека : A_AC3

Продолжительность : 55 м. 45 с.

Вид битрейта : Постоянный

Битрейт : 192 Кбит/сек

Каналы : 2 канала

Channel layout : L R

Частота : 48,0 КГц

Частота кадров : 31,250 кадров/сек (1536 SPF)

Битовая глубина : 16 бит

Метод сжатия : С потерями

Размер потока : 76,6 Мбайт (3%)

Заголовок : AC3 2.0 @ 192 kbps - MVO, Novamedia

Язык : Russian

Default : Да

Forced : Нет



Аудио #2

Идентификатор : 3

Формат : E-AC-3

Формат/Информация : Enhanced AC-3

Коммерческое название : Dolby Digital Plus

Идентификатор кодека : A_EAC3

Продолжительность : 55 м. 45 с.

Вид битрейта : Постоянный

Битрейт : 640 Кбит/сек

Каналы : 6 каналов

Channel layout : L R C LFE Ls Rs

Частота : 48,0 КГц

Частота кадров : 31,250 кадров/сек (1536 SPF)

Метод сжатия : С потерями

Задержка видео : 8 мс.

Размер потока : 255 Мбайт (9%)

Заголовок : E-AC3 5.1 @ 640 kbps - Original

Язык : English

Default : Нет

Forced : Нет



Текст #1

Идентификатор : 4

Формат : UTF-8

Идентификатор кодека : S_TEXT/UTF8

Идентификатор кодека/Информация : UTF-8 Plain Text

Продолжительность : 32 м. 10 с.

Битрейт : 7 бит/сек

ElementCount : 28

Размер потока : 1,70 Кбайт (0%)

Заголовок : Forced

Язык : Russian

Default : Да

Forced : Да



Текст #2

Идентификатор : 5

Формат : UTF-8

Идентификатор кодека : S_TEXT/UTF8

Идентификатор кодека/Информация : UTF-8 Plain Text

Продолжительность : 52 м. 45 с.

Битрейт : 57 бит/сек

ElementCount : 461

Размер потока : 22,2 Кбайт (0%)

Заголовок : Full

Язык : Russian

Default : Нет

Forced : Нет



Текст #3

Идентификатор : 6

Формат : UTF-8

Идентификатор кодека : S_TEXT/UTF8

Идентификатор кодека/Информация : UTF-8 Plain Text

Продолжительность : 55 м. 41 с.

Битрейт : 45 бит/сек

ElementCount : 665

Размер потока : 18,4 Кбайт (0%)

Заголовок : Full SDH

Язык : English

Default : Нет

Forced : Нет



Меню

00:00:00.000 : en:Ratings

00:00:03.944 : en:Previously On

00:01:59.944 : en:Studio Logo

00:02:05.944 : en:Opening Credits

00:03:52.944 : en:Arrival in Winterfell

00:09:46.944 : en:Fight together or die

00:12:53.944 : en:Sansa sees through the lies

00:15:36.944 : en:A tearful reunion

00:17:45.944 : en:A queen must be earned

00:22:40.944 : en:Cersei asks a favor of Bronn

00:25:25.944 : en:What is dead may never die

00:29:24.944 : en:Hold on to whatever you can

00:36:41.944 : en:A forge for dragonglass

00:39:11.944 : en:Sansa is frustrated with Jon's choice

00:41:03.944 : en:The head of House Tarly

00:44:32.944 : en:It's time for Jon to know the truth

00:48:40.944 : en:A message from the Night King

00:52:28.944 : en:An unexpected visitor

00:53:43.944 : en:End Credits

00:55:03.944 : en:Next Time

00:55:40.944 : en:Inside Game of ThronesСкриншоты

Discussion

Comments 0

Post Your Comment

Files in this torrent

FILENAMESIZE
Game.of.Thrones.S08E01.Winterfell.1080p.WEB-DL.Rus.Eng.EniaHD.mkv2.9 GB
Game.of.Thrones.S08E02.A.Knight.of.the.Seven.Kingdoms.1080p.WEB-DL.Rus.Eng.EniaHD.mkv3.1 GB
Game.of.Thrones.S08E03.The.Long.Night.1080p.WEB-DL.Rus.Eng.EniaHD.mkv4.4 GB
Game.of.Thrones.S08E04.The.Last.of.the.Starks.1080p.WEB-DL.Rus.Eng.EniaHD.mkv4.1 GB
Game.of.Thrones.S08E05.The.Bells.1080p.WEB-DL.Rus.Eng.EniaHD.mkv4.9 GB
Game.of.Thrones.S08E06.The.Iron.Throne.1080p.WEB-DL.Rus.Eng.EniaHD.mkv4.5 GB

Alternative Torrents for 'Game of Thrones Rus Eng EniaHD'.

TORRENT NAME ADDED SIZE SEEDS PEERS HEALTH
4/15/2019 2.9 GB 300 12
5/13/2019 19.5 GB 47 159
5/16/2019 4.9 GB 20 1
5/20/2019 2.9 GB 14 6
5/20/2019 10.4 GB 10 13
5/20/2019 6 GB 10 13
5/20/2019 1.4 GB 7 3
5/20/2019 2.9 GB 5 2
5/20/2019 14.5 GB 3 5
6/14/2019 24 GB 3 3
5/20/2019 19.5 GB 2 2
5/20/2019 6 GB 2 0
5/20/2019 1.4 GB 2 10
5/25/2019 4.5 GB 2 0