Warning! Do NOT Download Without a VPN!
Your IP Address is .   Location is United States
Your Internet Provider and Government can track your download activities! Hide your IP ADDRESS with a VPN!
We strongly recommend using a VPN service to anonymize your torrent downloads. It's FREE!
START YOUR FREE TRIAL NOW!

Game Of Thrones S08 WEBRip 720p Rus HDREZKA STUDIO

Torrent Details

Game of Thrones S08 WEBRip 720p rus HDREZKA STUDIO

NAME
Game of Thrones S08 WEBRip 720p rus HDREZKA STUDIO.torrent
CATEGORY
Television
INFOHASH
9e3163d1f0144952dfb6412c4be26aa89be4b7e3
SIZE
9.6 GB in 6 files
ADDED
Uploaded on 20-05-2019 by our crawler pet called "Spidey".
SWARM
2 seeders & 22 peers
RATING
No votes yet.

Please login to vote for this torrent.


Description

Информация о фильме

Название: Игра Престолов

Оригинальное название: Game Of Thrones

Год выхода: 2019

Жанр: фэнтези, драма, мелодрама, приключения

Режиссер: Дэвид Наттер, Алан Тейлор, Алекс Грейвз

В ролях: Питер Динклэйдж, Лина Хиди, Эмилия Кларк, Кит Харингтон, Софи Тернер, Мэйси Уильямс, Николай Костер-Вальдау, Иэн Глен, Элфи Оуэн-Аллен, Джон Брэдли и другие



О фильме:

К концу подходит время благоденствия, и лето, длившееся несколько десятилетий, угасает. Вокруг средоточия власти Семи королевств, Железного трона, зреет заговор, и в это непростое время король решает искать поддержки у друга юности Эддарда Старка (Шон Бин). В мире, где все — от короля до наемника — рвутся к власти, плетут интриги и готовы вонзить нож в спину, есть место и благородству, состраданию и любви. Между тем, никто не замечает пробуждение тьмы из легенд далеко на Севере — и лишь Стена защищает живых к югу от нее. Между древней ледяной Стеной и пламенем навсегда ушедших из мира драконов разворачивается «Игра престолов» — долгожданная экранизация культовой саги Джорджа Р. Р. Мартина «Песнь льда и пламени».







Страна: США, Великобритания

Студия: HBO

Продолжительность: ~ 01:05:00

Перевод: профессиональный, многоголосый закадровый | HDrezka Studio

Реклама: Присутствует (заставка студии вначале)



Файл

Кодек: AVC

Качество: WEBRip

Видео: 1280x720, 16:9, 23.976 fps, ~2500 kb/s

Звук: Russian, AC3, 48 kHz, 6 ch, 448 kbps

Субтитры: Russian (Forced, надписи)



Семпл



О релизе и озвучкеСериал озвучен голосами актеров, которые озвучивают дубляж от Кравец.MediaInfoGeneral

Complete name : Game.of.Thrones.S08.WEBRip.720p.rus.HDREZKA.STUDIOGame.of.Thrones.S08E01.WEBRip.720p.5.1.rus.HDREZKA.STUDIO.mkv

Format : Matroska

Format version : Version 4

File size : 1.25 GiB

Duration : 53 min 14 s

Overall bit rate mode : Variable

Overall bit rate : 3 368 kb/s

Encoded date : UTC 2019-04-18 23:28:01

Writing application : mkvmerge v28.2.0 ('The Awakening') 64-bit

Writing library : libebml v1.3.6 + libmatroska v1.4.9



Video

ID : 1

Format : AVC

Format/Info : Advanced Video Codec

Format profile : [email protected]

Format settings : CABAC / 1 Ref Frames

Format settings, CABAC : Yes

Format settings, RefFrames : 1 frame

Codec ID : V_MPEG4/ISO/AVC

Duration : 53 min 14 s

Bit rate mode : Variable

Bit rate : 2 919 kb/s

Width : 1 280 pixels

Height : 720 pixels

Display aspect ratio : 16:9

Frame rate mode : Constant

Frame rate : 23.976 (24000/1001) FPS

Color space : YUV

Chroma subsampling : 4:2:0

Bit depth : 8 bits

Scan type : Progressive

Bits/(Pixel*Frame) : 0.132

Stream size : 1.09 GiB (87%)

Default : Yes

Forced : No



Audio

ID : 2

Format : AC-3

Format/Info : Audio Coding 3

Commercial name : Dolby Digital

Codec ID : A_AC3

Duration : 53 min 14 s

Bit rate mode : Constant

Bit rate : 448 kb/s

Channel(s) : 6 channels

Channel layout : L R C LFE Ls Rs

Sampling rate : 48.0 kHz

Frame rate : 31.250 FPS (1536 SPF)

Bit depth : 16 bits

Compression mode : Lossy

Stream size : 171 MiB (13%)

Language : Russian

Service kind : Complete Main

Default : Yes

Forced : No



Text

ID : 3

Format : ASS

Codec ID : S_TEXT/ASS

Codec ID/Info : Advanced Sub Station Alpha

Duration : 46 s 750 ms

Bit rate : 35 b/s

Count of elements : 3

Compression mode : Lossless

Stream size : 210 Bytes (0%)

Language : Russian

Default : Yes

Forced : NoСкриншоты



Релиз от: HDREZKA

Discussion

Comments 0

Post Your Comment

Files in this torrent

FILENAMESIZE
Game.of.Thrones.S08E01.WEBRip.720p.rus.5.1.HDREZKA.STUDIO.mkv1.3 GB
Game.of.Thrones.S08E02.WEBRip.720p.rus.5.1.HDREZKA.STUDIO.mkv1.1 GB
Game.of.Thrones.S08E03.WEBRip.720p.rus.5.1.HDREZKA.STUDIO.mkv1.7 GB
Game.of.Thrones.S08E04.WEBRip.720p.rus.5.1.HDREZKA.STUDIO.mkv1.7 GB
Game.of.Thrones.S08E05.WEBRip.720p.rus.5.1.HDREZKA.STUDIO.mkv2.3 GB
Game.of.Thrones.S08E06.WEBRip.720p.rus.5.1.HDREZKA.STUDIO.mkv1.7 GB

Alternative Torrents for 'Game of Thrones rus HDREZKA STUDIO'.

TORRENT NAME ADDED SIZE SEEDS PEERS HEALTH
4/30/2019 4 GB 10 6
5/20/2019 20.4 GB 6 18
4/30/2019 8.6 GB 5 5
4/30/2019 1.6 GB 5 3
5/7/2019 12 GB 5 6
5/7/2019 5.7 GB 4 2
5/20/2019 3.8 GB 4 13
4/22/2019 2.6 GB 3 4
5/14/2019 8 GB 3 7
5/14/2019 3.2 GB 3 3
4/23/2019 5.1 GB 1 2
4/24/2019 940 MB 1 3
4/25/2019 5 GB 1 3
4/25/2019 2.3 GB 1 2