Shootout At Lokhandwala 2007 Hindi 720p NETFLIX WEBRip 950MB - Team DesireHub

Torrent Details

Shootout at Lokhandwala 2007 Hindi 720p NETFLIX WEBRip 950MB - Team DesireHub

NAME
Shootout at Lokhandwala 2007 Hindi 720p NETFLIX WEBRip 950MB - Team DesireHub.torrent
CATEGORY
Movies
INFOHASH
a187162a65c908ae8bd4e74c9e83ac96379b2a72
SIZE
945 MB in 6 files
ADDED
Uploaded on 28-05-2019 by our crawler pet called "Spidey".
SWARM
0 seeders & 0 peers
RATING
No votes yet.

Please login to vote for this torrent.


Description

Media Info

General
Unique ID                                : 280157866405272221973343654330939623688 (0xD2C471418E565EBBD462925410624908)
Complete name                            : Shootout at Lokhandwala 2007 Hindi [DesireHub.cc] 720p NF WEBRip 950MB.mkv
Format                                   : Matroska
Format version                           : Version 4
File size                                : 942 MiB
Duration                                 : 1 h 56 min
Overall bit rate                         : 1 131 kb/s
Movie name                               : DesireHub.cc
Encoded date                             : UTC 2019-05-20 04:47:34
Writing application                      : mkvmerge v29.0.0 ('Like It Or Not') 32-bit
Writing library                          : libebml v1.3.6 + libmatroska v1.4.9

Video
ID                                       : 1
Format                                   : AVC
Format/Info                              : Advanced Video Codec
Format profile                           : [email protected]
Format settings                          : CABAC / 8 Ref Frames
Format settings, CABAC                   : Yes
Format settings, RefFrames               : 8 frames
Codec ID                                 : V_MPEG4/ISO/AVC
Duration                                 : 1 h 56 min
Bit rate                                 : 950 kb/s
Width                                    : 1 280 pixels
Height                                   : 570 pixels
Display aspect ratio                     : 2.25:1
Frame rate mode                          : Constant
Frame rate                               : 25.000 FPS
Color space                              : YUV
Chroma subsampling                       : 4:2:0
Bit depth                                : 8 bits
Scan type                                : Progressive
Bits/(Pixel*Frame)                       : 0.052
Stream size                              : 780 MiB (83%)
Title                                    : DesireHub.cc
Writing library                          : x264 core 142 r2479 dd79a61
Encoding settings                        : cabac=1 / ref=8 / deblock=1:0:0 / analyse=0x3:0x133 / me=umh / subme=9 / psy=1 / psy_rd=1.00:0.00 / mixed_ref=1 / me_range=16 / chroma_me=1 / trellis=2 / 8x8dct=1 / cqm=0 / deadzone=21,11 / fast_pskip=1 / chroma_qp_offset=-2 / threads=6 / lookahead_threads=1 / sliced_threads=0 / nr=0 / decimate=1 / interlaced=0 / bluray_compat=0 / constrained_intra=0 / bframes=3 / b_pyramid=2 / b_adapt=2 / b_bias=0 / direct=3 / weightb=1 / open_gop=0 / weightp=2 / keyint=250 / keyint_min=25 / scenecut=40 / intra_refresh=0 / rc_lookahead=60 / rc=abr / mbtree=1 / bitrate=950 / ratetol=1.0 / qcomp=0.60 / qpmin=0 / qpmax=69 / qpstep=4 / vbv_maxrate=62500 / vbv_bufsize=78125 / nal_hrd=none / filler=0 / ip_ratio=1.40 / aq=1:1.00
Default                                  : Yes
Forced                                   : No
Color range                              : Limited
Color primaries                          : BT.709
Transfer characteristics                 : BT.709
Matrix coefficients                      : BT.709

Audio #1
ID                                       : 2
Format                                   : AAC LC SBR
Format/Info                              : Advanced Audio Codec Low Complexity with Spectral Band Replication
Commercial name                          : HE-AAC
Format settings                          : NBC
Codec ID                                 : A_AAC-5
Duration                                 : 1 h 56 min
Bit rate                                 : 96.0 kb/s
Channel(s)                               : 2 channels
Channel layout                           : L R
Sampling rate                            : 48.0 kHz
Frame rate                               : 23.438 FPS (2048 SPF)
Compression mode                         : Lossy
Delay relative to video                  : -105 ms
Stream size                              : 80.0 MiB (8%)
Title                                    : DesireHub.cc
Language                                 : Hindi
Default                                  : Yes
Forced                                   : No

Audio #2
ID                                       : 3
Format                                   : AAC LC SBR
Format/Info                              : Advanced Audio Codec Low Complexity with Spectral Band Replication
Commercial name                          : HE-AAC
Format settings                          : NBC
Codec ID                                 : A_AAC-5
Duration                                 : 1 h 56 min
Bit rate                                 : 96.0 kb/s
Channel(s)                               : 2 channels
Channel layout                           : L R
Sampling rate                            : 48.0 kHz
Frame rate                               : 23.438 FPS (2048 SPF)
Compression mode                         : Lossy
Delay relative to video                  : -105 ms
Stream size                              : 80.0 MiB (8%)
Title                                    : DesireHub.cc
Language                                 : Hindi
Default                                  : No
Forced                                   : No

Text
ID                                       : 4
Format                                   : ASS
Codec ID                                 : S_TEXT/ASS
Codec ID/Info                            : Advanced Sub Station Alpha
Duration                                 : 1 h 55 min
Bit rate                                 : 88 b/s
Count of elements                        : 1353
Compression mode                         : Lossless
Stream size                              : 74.5 KiB (0%)
Title                                    : DesireHub.cc
Language                                 : English
Default                                  : Yes
Forced                                   : No



Screenshots





Discussion

Comments 0

Post Your Comment

Files in this torrent

FILENAMESIZE
Screenshots/vlcsnap-2019-05-20-02h31m23s350.png607 KB
Screenshots/vlcsnap-2019-05-20-02h31m27s637.png524 KB
Screenshots/vlcsnap-2019-05-20-02h31m32s728.png572.8 KB
Screenshots/vlcsnap-2019-05-20-02h31m38s731.png810.3 KB
Screenshots/vlcsnap-2019-05-20-02h31m41s141.png567.4 KB
Shootout at Lokhandwala 2007 Hindi 720p NETFLIX WEBRip 950MB - Team DesireHub.mkv941.8 MB

Alternative Torrents for 'Shootout at Lokhandwala Hindi NETFLIX MB Team DesireHub'.

There are no alternative torrents found.