Harry Potter And The Chamber Of Secrets (2002) 2160p UHD BluRay X265 10Bit HEVC English DTS-HD [Dzrg Torrents]

Torrent Details


Harry Potter And The Chamber Of Secrets (2002) 2160p UHD BluRay x265 10Bit HEVC English DTS-HD [Dzrg Torrents]

NAME
Harry Potter And The Chamber Of Secrets (2002) 2160p UHD BluRay x265 10Bit HEVC English DTS-HD [Dzrg Torrents].torrent
CATEGORY
Movies
INFOHASH
86768585a1a98f63669669c2de534b9965066344
SIZE
12 GB in 1 file
ADDED
Uploaded on 30-05-2019 by our crawler pet called "Spidey".
SWARM
0 seeders & 0 peers
RATING
No votes yet.

Please login to vote for this torrent.


Description



Harry Potter And The Chamber Of Secrets (2002) 2160p UHD BluRay x265 10Bit HEVC English DTS-HD [Dzrg Torrents]

General
Unique ID : 211966723264285417762574484222167566769 (0x9F774E530E51B6B6A5C8CE4556A549B1)
Format : Matroska
Format version : Version 4
File size : 12.0 GiB
Duration : 2 h 1 min
Overall bit rate mode : Variable
Overall bit rate : 14.1 Mb/s
Movie name : Harry Potter And The Chamber Of Secrets (2002) 2160p UHD BluRay x265 10Bit HEVC English DTS-HD [Dzrg Torrents].mkv
Encoded date : UTC 2019-05-29 10:07:23
Writing application : mkvmerge v13.0.0 ('The Juggler') 64bit
Writing library : libebml v1.3.4 + libmatroska v1.4.5

Video
ID : 1
Format : HEVC
Format/Info : High Efficiency Video Coding
Format profile : Main [email protected]@Main
Codec ID : V_MPEGH/ISO/HEVC
Duration : 2 h 1 min
Bit rate : 9 970 kb/s
Width : 3 840 pixels
Height : 1 600 pixels
Display aspect ratio : 2.40:1
Frame rate mode : Constant
Frame rate : 23.976 (24000/1001) FPS
Color space : YUV
Chroma subsampling : 4:2:0
Bit depth : 10 bits
Bits/(Pixel*Frame) : 0.068
Stream size : 8.49 GiB (71%)
Title : Harry Potter And The Chamber Of Secrets (2002) 2160p UHD BluRay x265 10Bit HEVC English DTS-HD [Dzrg Torrents].mkv
Writing library : x265 2.6:[Windows][GCC 7.3.0][64 bit] 10bit
Encoding settings : cpuid=1050111 / frame-threads=3 / numa-pools=8 / wpp / no-pmode / no-pme / no-psnr / no-ssim / log-level=2 / input-csp=1 / input-res=3840x1600 / interlace=0 / total-frames=0 / level-idc=0 / high-tier=1 / uhd-bd=0 / ref=1 / no-allow-non-conformance / no-repeat-headers / annexb / no-aud / no-hrd / info / hash=0 / no-temporal-layers / open-gop / min-keyint=24 / keyint=240 / bframes=3 / b-adapt=0 / b-pyramid / bframe-bias=0 / rc-lookahead=5 / lookahead-slices=8 / scenecut=0 / no-intra-refresh / ctu=32 / min-cu-size=16 / no-rect / no-amp / max-tu-size=32 / tu-inter-depth=1 / tu-intra-depth=1 / limit-tu=0 / rdoq-level=0 / dynamic-rd=0.00 / no-ssim-rd / no-signhide / no-tskip / nr-intra=0 / nr-inter=0 / no-constrained-intra / strong-intra-smoothing / max-merge=2 / limit-refs=0 / no-limit-modes / me=0 / subme=0 / merange=57 / temporal-mvp / no-weightp / no-weightb / no-analyze-src-pics / deblock=0:0 / no-sao / no-sao-non-deblock / rd=2 / early-skip / rskip / fast-intra / no-tskip-fast / no-cu-lossless / no-b-intra / no-splitrd-skip / rdpenalty=0 / psy-rd=2.00 / psy-rdoq=0.00 / no-rd-refine / analysis-reuse-mode=0 / no-lossless / cbqpoffs=0 / crqpoffs=0 / rc=abr / bitrate=10000 / qcomp=0.60 / qpstep=4 / stats-write=0 / stats-read=0 / ipratio=1.40 / pbratio=1.30 / aq-mode=1 / aq-strength=0.00 / cutree / zone-count=0 / no-strict-cbr / qg-size=32 / no-rc-grain / qpmax=69 / qpmin=0 / no-const-vbv / sar=1 / overscan=0 / videoformat=5 / range=0 / colorprim=9 / transfer=16 / colormatrix=9 / chromaloc=0 / display-window=0 / max-cll=0,0 / min-luma=0 / max-luma=1023 / log2-max-poc-lsb=8 / vui-timing-info / vui-hrd-info / slices=1 / no-opt-qp-pps / no-opt-ref-list-length-pps / no-multi-pass-opt-rps / scenecut-bias=0.05 / no-opt-cu-delta-qp / no-aq-motion / no-hdr / no-hdr-opt / no-dhdr10-opt / analysis-reuse-level=5 / scale-factor=0 / refine-intra=0 / refine-inter=0 / refine-mv=0 / no-limit-sao / ctu-info=0 / no-lowpass-dct / refine-mv-type=0 / copy-pic=1
Language : English
Default : Yes
Forced : No
Color range : Limited
Color primaries : BT.2020
Transfer characteristics : PQ
Matrix coefficients : BT.2020 non-constant

Audio
ID : 2
Format : DTS XLL X
Format/Info : Digital Theater Systems
Commercial name : DTS-HD Master Audio
Codec ID : A_DTS
Duration : 2 h 1 min
Bit rate mode : Variable
Bit rate : 4 075 kb/s
Channel(s) : 8 channels
Channel(s)_Original : Object Based
Channel layout : Object Based
Sampling rate : 48.0 kHz
Frame rate : 93.750 FPS (512 SPF)
Bit depth : 24 bits
Stream size : 3.47 GiB (29%)
Title : [English DTS-HD] [Dzrg Torrents]
Language : English
Default : Yes
Forced : No

Text
ID : 3
Format : PGS
Muxing mode : zlib
Codec ID : S_HDMV/PGS
Codec ID/Info : Picture based subtitle format used on BDs/HD-DVDs
Duration : 2 h 0 min
Bit rate : 29.9 kb/s
Count of elements : 2643
Stream size : 25.8 MiB (0%)
Title : [PGS] [Dzrg Torrents]
Language : English
Default : Yes
Forced : No

Discussion

Comments 0

Post Your Comment

Files in this torrent

FILENAMESIZE
Harry Potter And The Chamber Of Secrets (2002) 2160p UHD BluRay x265 10Bit HEVC English DTS-HD [Dzrg Torrents].mkv12 GB

Alternative Torrents for 'Harry Potter And Chamber Of Secrets UHD BluRay Bit HEVC English DTSHD Dzrg Torrents'.

There are no alternative torrents found.