Hard Ticket To Hawaii 1987 ExKinoRay

Torrent Details

Hard Ticket to Hawaii 1987<span style=color:#fc9c6d> ExKinoRay</span>

NAME
Hard Ticket to Hawaii 1987 ExKinoRay.torrent
CATEGORY
Movies
INFOHASH
2eb78b631da4cc3fa77b9114acb0bb469e9f0573
SIZE
746 MB in 1 file
ADDED
Uploaded on 04-06-2019 by our crawler pet called "Spidey".
SWARM
0 seeders & 0 peers
RATING
No votes yet.

Please login to vote for this torrent.


Description

Информация о фильме

Название: Заваруха на Гавайях

Оригинальное название: Hard Ticket to Hawaii

Год выхода: 1987

Жанр: Боевик, приключения, эротика

Режиссер: Энди Сидарис / Andy Sidaris

В ролях: Ронн Мосс, Дона Спейр, Хоуп Мари Карлтон, Харольд Даймонд, Родриго Обрегон, Синтия Бримхолл, Patty Duffek, Вульф Ларсон, Лори Грин, Растем Бренемен



О фильме:

Красавицы Террин и Донна расследуют убийство двух агентов отдела борьбы с оборотом наркотиков, на гаваях. В результате расследования им в руки попадает партия алмазов предназначенная для наркобарона Сета Ромео. Ромео не согласен с таким оборотом дела и желает вернуть все свое добро назад. В результате на острове разворачивается настоящая война, в которой есть все, что ожидаешь от подобного фильма: секс, карате, оружие и красивые девушки.







Страна: США

Студия: Malibu Bay Films

Продолжительность: 01:35:55

Перевод: Авторский (одноголосый, закадровый) Виктор Махонько



Файл

Формат: MKV

Качество: BDRip-AVC (BDRemux 1080p)

Видео: MPEG-4 AVC, 768x432, - 1009 Кбит/с

Аудио: AAC-HE, 2 ch, - 76 Кбит/с

Субтитры: Нет





MIОбщее

Уникальный идентификатор : 112177595959172235898564849686931977644 (0x54649E7E4D4A21D5E3C6BACEBABA35AC)

Полное имя : D:MOVIESHard.Ticket.to.Hawaii.1987.ExKinoRay.mkv

Формат : Matroska

Версия формата : Version 4 / Version 2

Размер файла : 746 Мбайт

Продолжительность : 1 ч. 35 м.

Общий поток : 1087 Кбит/сек

Дата кодирования : UTC 2019-06-02 15:17:17

Программа кодирования : mkvmerge v32.0.0 ('Astral Progressions') 64-bit

Библиотека кодирования : libebml v1.3.7 + libmatroska v1.5.0



Видео

Идентификатор : 1

Формат : AVC

Формат/Информация : Advanced Video Codec

Профиль формата : [email protected]

Параметр CABAC формата : Да

Параметр RefFrames формата : 12 кадров

Идентификатор кодека : V_MPEG4/ISO/AVC

Продолжительность : 1 ч. 35 м.

Битрейт : 1009 Кбит/сек

Ширина : 768 пикселей

Высота : 432 пикселя

Соотношение сторон : 16:9

Режим частоты кадров : Постоянный

Частота кадров : 23,976 (24000/1001) кадра/сек

Цветовое пространство : YUV

Субдискретизация насыщенности : 4:2:0

Битовая глубина : 8 бит

Тип развёртки : Прогрессивная

Бит/(Пиксели*Кадры) : 0.127

Размер потока : 692 Мбайт (93%)

Библиотека кодирования : x264 core 152 r2851 ba24899

Настройки программы : cabac=1 / ref=12 / deblock=1:-2:-2 / analyse=0x3:0x133 / me=umh / subme=11 / psy=1 / psy_rd=1.00:0.12 / mixed_ref=1 / me_range=32 / chroma_me=1 / trellis=2 / 8x8dct=1 / cqm=0 / deadzone=21,11 / fast_pskip=0 / chroma_qp_offset=-3 / threads=6 / lookahead_threads=1 / sliced_threads=0 / nr=0 / decimate=0 / interlaced=0 / bluray_compat=0 / constrained_intra=0 / bframes=12 / b_pyramid=2 / b_adapt=2 / b_bias=0 / direct=3 / weightb=1 / open_gop=0 / weightp=2 / keyint=240 / keyint_min=23 / scenecut=40 / intra_refresh=0 / rc=2pass / mbtree=0 / bitrate=1009 / ratetol=1.0 / qcomp=0.60 / qpmin=0 / qpmax=69 / qpstep=4 / cplxblur=20.0 / qblur=0.5 / ip_ratio=1.40 / pb_ratio=1.30 / aq=1:1.00

Default : Да

Forced : Нет



Аудио

Идентификатор : 2

Формат : AAC

Формат/Информация : Advanced Audio Codec

Профиль формата : HE-AAC / LC

Идентификатор кодека : A_AAC

Продолжительность : 1 ч. 35 м.

Битрейт : 76,0 Кбит/сек

Каналы : 2 канала

Расположение каналов : Front: L R

Частота : 48,0 КГц / 24,0 КГц

Частота кадров : 23,438 кадра/сек (1024 SPF)

Метод сжатия : С потерями

Задержка видео : 31 мс.

Размер потока : 52,1 Мбайт (7%)

Default : Да

Forced : Нет



Меню

00:00:00.000 : en:Chapter 01

00:23:52.139 : en:Chapter 02

00:26:52.193 : en:Chapter 03

00:40:25.840 : en:Chapter 04

00:48:04.256 : en:Chapter 05

00:51:46.770 : en:Chapter 06

01:03:31.682 : en:Chapter 07

01:09:24.410 : en:Chapter 08

01:13:08.175 : en:Chapter 09

01:20:40.460 : en:Chapter 10

01:28:20.253 : en:Chapter 11

Скриншоты





Discussion

Comments 0

Post Your Comment

Files in this torrent

FILENAMESIZE
Hard.Ticket.to.Hawaii.1987.ExKinoRay.mkv745.6 MB

Alternative Torrents for 'Hard Ticket to Hawaii'.

TORRENT NAMEADDEDSIZESEEDSPEERSHEALTH
8/5/2020949 MB00
8/3/20191.5 GB00
6/4/2019746 MB00
5/7/201913.9 GB00
4/28/201924.6 GB00
4/26/20198.8 GB00
4/26/20191.2 GB00
4/26/20195.5 GB00
4/26/20198.7 GB00
4/26/20191.2 GB00
4/26/201925.8 GB00
4/23/2019784 MB00
4/23/20191.5 GB00
4/19/20191.8 GB00
7/23/2014378 MB00