Happy Death Day 2U 2019 1080p BluRay X265 Hevc Frank

Torrent Details

Happy Death Day 2U 2019 1080p BluRay x265 hevc frank

NAME
Happy Death Day 2U 2019 1080p BluRay x265 hevc frank.torrent
CATEGORY
Movies
INFOHASH
2c513085650893c61441b50177d1afddef57a162
SIZE
786 MB in 1 file
ADDED
Uploaded on 07-06-2019 by our crawler pet called "Spidey".
SWARM
0 seeders & 0 peers
RATING
No votes yet.

Please login to vote for this torrent.


Description

help me maintain this seedbox for my release  

paypal http://bit.ly/2WzIPbe















General

Unique ID                                : 15634749122015411678859747888628057451 (0xBC324A586559EAF26BD4AA446C9456B)

Complete name                            : /home/albadri39/torrents/rtorrent/Happy.Death.Day.2U.2019.1080p.BluRay.x265 hevc frank.mkv

Format                                   : Matroska

Format version                           : Version 4 / Version 2

File size                                : 786 MiB

Duration                                 : 1h 39mn

Overall bit rate                         : 1 099 Kbps

Movie name                               : Happy.Death.Day.2U.2019.1080p.BluRay.x264.DTS-HD.MA.5.1-FGT

Encoded date                             : UTC 2019-06-06 12:28:09

Writing application                      : mkvmerge v34.0.0 ('Sight and Seen') 64-bit

Writing library                          : libebml v1.3.7 + libmatroska v1.5.0

Cover                                    : Yes

Attachments                              : cover.jpg / small_cover.jpg / cover_land.jpg / small_cover_land.jpg

Writing frontend                         : StaxRip v2.0.2.0



Video

ID                                       : 1

Format                                   : HEVC

Format/Info                              : High Efficiency Video Coding

Format profile                           : Main [email protected]@Main

Codec ID                                 : V_MPEGH/ISO/HEVC

Duration                                 : 1h 39mn

Bit rate                                 : 801 Kbps

Width                                    : 1 920 pixels

Height                                   : 808 pixels

Display aspect ratio                     : 2.40:1

Frame rate mode                          : Constant

Frame rate                               : 23.976 (24000/1001) fps

Color space                              : YUV

Chroma subsampling                       : 4:2:0

Bit depth                                : 10 bits

Bits/(Pixel*Frame)                       : 0.022

Stream size                              : 572 MiB (73%)

Writing library                          : x265 3.0_Au+24-4217e691387c:[Windows][GCC 9.1.1][64 bit] 10bit

Encoding settings                        : rc=abr / bitrate=800 / qcomp=0.60 / qpstep=4 / stats-write=0 / stats-read=2 / cplxblur=20.0 / qblur=0.5 / qpmax=69 / qpmin=0 / no-lossless / no-cu-lossless / no-hevc-aq / no-aq-motion / aq-mode=2 / aq-strength=1.00 / cbqpoffs=0 / crqpoffs=0 / ipratio=1.40 / pbratio=1.30 / psy-rd=2.00 / psy-rdoq=0.00 / deblock=0:0 / ref=3 / limit-refs=3 / no-limit-modes / bframes=4 / b-adapt=2 / bframe-bias=0 / b-pyramid / no-b-intra / weightp / no-weightb / keyint=250 / min-keyint=23 / rc-lookahead=20 / gop-lookahead=0 / scenecut=40 / scenecut-bias=0.05 / ctu=64 / min-cu-size=8 / me=1 / subme=2 / merange=57 / rd=3 / no-rd-refine / no-ssim-rd / dynamic-rd=0.00 / rdoq-level=0 / rdpenalty=0 / cutree / sao / no-limit-sao / no-sao-non-deblock / no-rect / no-amp / open-gop / max-tu-size=32 / tu-inter-depth=1 / tu-intra-depth=1 / limit-tu=0 / qg-size=32 / wpp / no-pmode / no-pme / no-psnr / no-ssim / no-tskip / no-constrained-intra / strong-intra-smoothing / max-merge=2 / nr-intra=0 / nr-inter=0 / input-csp=1 / input-res=1920x808 / interlace=0 / total-frames=143760 / level-idc=0 / high-tier=1cpuid=1111039 / frame-threads=2 / numa-pools=4 / log-level=2 / uhd-bd=0 / lookahead-slices=5 / radl=0 / no-splice / no-intra-refresh / signhide / temporal-mvp / no-analyze-src-pics / no-early-skip / rskip / no-fast-intra / no-tskip-fast / no-splitrd-skip / zone-count=0 / no-strict-cbr / no-rc-grain / no-const-vbv / no-allow-non-conformance / no-repeat-headers / annexb / no-aud / no-hrd / info / hash=0 / no-temporal-layers / sar=0 / overscan=0 / videoformat=5 / range=0 / colorprim=2 / transfer=2 / colormatrix=2 / chromaloc=0 / display-window=0 / max-cll=0,0 / min-luma=0 / max-luma=1023 / log2-max-poc-lsb=8 / vui-timing-info / vui-hrd-info / slices=1 / no-opt-qp-pps / no-opt-ref-list-length-pps / no-multi-pass-opt-rps / no-opt-cu-delta-qp / no-hdr / no-hdr-opt / no-dhdr10-opt / no-idr-recovery-sei / analysis-reuse-level=5 / scale-factor=0 / refine-intra=0 / refine-inter=0 / refine-mv=0 / refine-ctu-distortion=0 / ctu-info=0 / no-lowpass-dct / refine-analysis-type=0 / copy-pic=1 / max-ausize-factor=1.0 / no-dynamic-refine / no-single-sei / no-svt / qp-adaptation-range=1.00

Default                                  : Yes

Forced                                   : No



Audio

ID                                       : 2

Format                                   : Opus

Codec ID                                 : A_OPUS

Duration                                 : 1h 39mn

Bit rate                                 : 282 Kbps

Channel(s)                               : 6 channels

Channel positions                        : Front: L C R, Rear: L R, LFE

Sampling rate                            : 48.0 KHz

Frame rate                               : 50.000 fps (960 spf)

Compression mode                         : Lossy

Stream size                              : 202 MiB (26%)

Language                                 : English

Default                                  : No

Forced                                   : No



Text #1

ID                                       : 3

Format                                   : UTF-8

Codec ID                                 : S_TEXT/UTF8

Codec ID/Info                            : UTF-8 Plain Text

Duration                                 : 1h 33mn

Bit rate                                 : 57 bps

Count of elements                        : 1481

Stream size                              : 39.3 KiB (0%)

Language                                 : English

Default                                  : No

Forced                                   : No



Text #2

ID                                       : 4

Format                                   : UTF-8

Codec ID                                 : S_TEXT/UTF8

Codec ID/Info                            : UTF-8 Plain Text

Duration                                 : 1h 39mn

Bit rate                                 : 68 bps

Count of elements                        : 1868

Stream size                              : 50.4 KiB (0%)

Language                                 : English

Default                                  : No

Forced                                   : No



Text #3

ID                                       : 5

Format                                   : PGS

Muxing mode                              : zlib

Codec ID                                 : S_HDMV/PGS

Codec ID/Info                            : Picture based subtitle format used on BDs/HD-DVDs

Duration                                 : 1h 34mn

Bit rate                                 : 46.5 Kbps

Count of elements                        : 3190

Stream size                              : 31.3 MiB (4%)

Language                                 : English

Default                                  : No

Forced                                   : No

Discussion

Comments 0

Post Your Comment

Files in this torrent

FILENAMESIZE
Happy.Death.Day.2U.2019.1080p.BluRay.x265 hevc frank.mkv785.7 MB

Alternative Torrents for 'Happy Death Day BluRay hevc frank'.

TORRENT NAMEADDEDSIZESEEDSPEERSHEALTH
6/7/2019786 MB00
2/12/2019684 MB00