The Color Of Rain 2014 1080p AMZN WEB-DL DDP2.0 X264-ABM

Torrent Details

The Color of Rain 2014 1080p AMZN WEB-DL DDP2.0 x264-ABM

NAME
The Color of Rain 2014 1080p AMZN WEB-DL DDP2.0 x264-ABM.torrent
CATEGORY
Movies
INFOHASH
b878fc1709b3194a71366632933bf8eed00465ed
SIZE
5.1 GB in 1 file
ADDED
Uploaded on 07-06-2019 by our crawler pet called "Spidey".
SWARM
0 seeders & 0 peers
RATING
No votes yet.

Please login to vote for this torrent.


Description

Цвет дождя / The Color of Rain



Страна: США

Производство: Lighthouse Pictures, David Permut Productions, LaCanada

Год выпуска: 2014

Жанр: драма

Продолжительность: 01:26:38



Режиссер: Энн Вилер

Авторы сценария: Нэнси Сильверс, Джина Келл

В ролях: Уоррен Кристи, Лейси Чаберт, Каллум Сигрем Эйрли, Сет Исаак Джонсон, Мэтт Андерсон, Алекс Захара, Джим Торберн, Шон Майкл Кайер, Патрик Гилмор



Описание: После смерти от рака Мэтта Келла, Джина — его вдова остается с двумя сыновьями на руках. Чтобы быть поближе к детям она соглашается на работу в начальной школе. Здесь она узнает о судьбе еще одной семьи из городка, где супруга и мать троих детей имеет точно такой же диагноз. И когда через несколько недель и в эту семью приходит горе, главная героиня решает протянуть им руку помощи...







Перевод: Профессиональный (многоголосый, закадровый) | FOX

Субтитры: нет



Качество: WEB-DL 1080p

Формат: MKV

Видео кодек: AVC

Аудио кодек: АС3 | E-AC3

Видео: 1920x1080 (16:9), 23.976 fps, MPEG-4 AVC ~7 905 kbps avg

Аудио №1: 48.0 kHz, AC3 Dolby Digital, 2/0 (L,R) ch, ~192 kbps | RUS / FOX

Аудио №2: 48.0 kHz, Enhanced Audio Coding 3, 2/0 (L,R) ch, ~224 kbps | ENG



Дата премьеры (мир): 31 мая 2014







Media InfoGeneral

Уникальный идентификатор : 218303317160436741546275678754036720111 (0xA43BB08634F7F124A66D0B949AE321EF)

Полное имя : The.Color.of.Rain.2014.1080p.AMZN.WEB-DL.DDP2.0.x264-ABM.mkv

Формат : Matroska

Версия формата : Version 2

Размер файла : 5,14 Гбайт

Продолжительность : 1 ч. 26 м.

Общий поток : 8490 Кбит/сек

Название фильма : Цвет дождя / The Color of Rain (2014)

Дата кодирования : UTC 2019-06-05 12:17:18

Программа кодирования : mkvmerge v8.2.0 ('World of Adventure') 64bit

Библиотека кодирования : libebml v1.3.1 + libmatroska v1.4.2



Видео

Идентификатор : 1

Формат : AVC

Формат/Информация : Advanced Video Codec

Профиль формата : [email protected]

Настройки формата : CABAC / 4 Ref Frames

Параметр CABAC формата : Да

Параметр RefFrames формата : 4 кадра

Идентификатор кодека : V_MPEG4/ISO/AVC

Продолжительность : 1 ч. 26 м.

Битрейт : 7905 Кбит/сек

Ширина : 1920 пикселей

Высота : 1080 пикселей

Соотношение сторон : 16:9

Режим частоты кадров : Постоянный

Частота кадров : 23,976 (24000/1001) кадра/сек

Цветовое пространство : YUV

Субдискретизация насыщенности : 4:2:0

Битовая глубина : 8 бит

Тип развёртки : Прогрессивная

Бит/(Пиксели*Кадры) : 0.159

Размер потока : 4,78 Гбайт (93%)

Язык : English

Default : Да

Forced : Нет

Цветовой диапазон : Limited

Основные цвета : BT.709

Характеристики трансфера : BT.709

Коэффициенты матрицы : BT.709



Аудио #1

Идентификатор : 2

Формат : AC-3

Формат/Информация : Audio Coding 3

Коммерческое название : Dolby Digital

Идентификатор кодека : A_AC3

Продолжительность : 1 ч. 26 м.

Вид битрейта : Постоянный

Битрейт : 192 Кбит/сек

Каналы : 2 канала

Channel layout : L R

Частота : 48,0 КГц

Частота кадров : 31,250 кадров/сек (1536 SPF)

Битовая глубина : 16 бит

Метод сжатия : С потерями

Размер потока : 119 Мбайт (2%)

Язык : Russian

Default : Да

Forced : Нет



Аудио #2

Идентификатор : 3

Формат : E-AC-3

Формат/Информация : Enhanced AC-3

Коммерческое название : Dolby Digital Plus

Идентификатор кодека : A_EAC3

Продолжительность : 1 ч. 26 м.

Вид битрейта : Постоянный

Битрейт : 224 Кбит/сек

Каналы : 2 канала

Channel layout : L R

Частота : 48,0 КГц

Частота кадров : 31,250 кадров/сек (1536 SPF)

Метод сжатия : С потерями

Размер потока : 139 Мбайт (3%)

Язык : English

Default : Нет

Forced : НетСкриншоты

Discussion

Comments 0

Post Your Comment

Files in this torrent

FILENAMESIZE
The.Color.of.Rain.2014.1080p.AMZN.WEB-DL.DDP2.0.x264-ABM.mkv5.1 GB

Alternative Torrents for 'Color of Rain DDP. ABM'.

There are no alternative torrents found.