Harry Potter And The Prisoner Of Azkaban (2004) 2160p UHD BluRay X265 10Bit HEVC English DTS-HD [Dzrg Torrents]

Torrent Details

Harry Potter And The Prisoner Of Azkaban (2004) 2160p UHD BluRay x265 10Bit HEVC English DTS-HD [Dzrg Torrents]

NAME
Harry Potter And The Prisoner Of Azkaban (2004) 2160p UHD BluRay x265 10Bit HEVC English DTS-HD [Dzrg Torrents].torrent
CATEGORY
Movies
INFOHASH
37e7e73bf57818654cad46ec53fcaae5a38ac42b
SIZE
13.9 GB in 1 file
ADDED
Uploaded on 09-06-2019 by our crawler pet called "Spidey".
SWARM
0 seeders & 0 peers
RATING
No votes yet.

Please login to vote for this torrent.


Description




Harry Potter And The Prisoner Of Azkaban (2004) 2160p UHD BluRay x265 10Bit HEVC English DTS-HD [Dzrg Torrents]



General
Unique ID : 254557340013342375397664013589068422668 (0xBF81F5DAC6F9E35B92031896E6E89E0C)
Format : Matroska
Format version : Version 4
File size : 13.9 GiB
Duration : 2 h 21 min
Overall bit rate mode : Variable
Overall bit rate : 14.1 Mb/s
Movie name : Harry Potter And The Prisoner Of Azkaban (2004) 2160p UHD BluRay x265 10Bit HEVC English DTS-HD [Dzrg Torrents].mkv
Encoded date : UTC 2019-06-04 07:03:26
Writing application : mkvmerge v13.0.0 ('The Juggler') 64bit
Writing library : libebml v1.3.4 + libmatroska v1.4.5

Video
ID : 1
Format : HEVC
Format/Info : High Efficiency Video Coding
Format profile : Main [email protected]@Main
Codec ID : V_MPEGH/ISO/HEVC
Duration : 2 h 21 min
Bit rate : 9 810 kb/s
Width : 3 840 pixels
Height : 1 600 pixels
Display aspect ratio : 2.40:1
Frame rate mode : Constant
Frame rate : 23.976 (24000/1001) FPS
Color space : YUV
Chroma subsampling : 4:2:0
Bit depth : 10 bits
Bits/(Pixel*Frame) : 0.067
Stream size : 9.71 GiB (70%)
Title : Harry Potter And The Prisoner Of Azkaban (2004) 2160p UHD BluRay x265 10Bit HEVC English DTS-HD [Dzrg Torrents].mkv
Writing library : x265 2.6:[Windows][GCC 7.3.0][64 bit] 10bit
Encoding settings : cpuid=1050111 / frame-threads=3 / numa-pools=8 / wpp / no-pmode / no-pme / no-psnr / no-ssim / log-level=2 / input-csp=1 / input-res=3840x1600 / interlace=0 / total-frames=0 / level-idc=0 / high-tier=1 / uhd-bd=0 / ref=1 / no-allow-non-conformance / no-repeat-headers / annexb / no-aud / no-hrd / info / hash=0 / no-temporal-layers / open-gop / min-keyint=24 / keyint=240 / bframes=3 / b-adapt=0 / b-pyramid / bframe-bias=0 / rc-lookahead=5 / lookahead-slices=8 / scenecut=0 / no-intra-refresh / ctu=32 / min-cu-size=16 / no-rect / no-amp / max-tu-size=32 / tu-inter-depth=1 / tu-intra-depth=1 / limit-tu=0 / rdoq-level=0 / dynamic-rd=0.00 / no-ssim-rd / no-signhide / no-tskip / nr-intra=0 / nr-inter=0 / no-constrained-intra / strong-intra-smoothing / max-merge=2 / limit-refs=0 / no-limit-modes / me=0 / subme=0 / merange=57 / temporal-mvp / no-weightp / no-weightb / no-analyze-src-pics / deblock=0:0 / no-sao / no-sao-non-deblock / rd=2 / early-skip / rskip / fast-intra / no-tskip-fast / no-cu-lossless / no-b-intra / no-splitrd-skip / rdpenalty=0 / psy-rd=2.00 / psy-rdoq=0.00 / no-rd-refine / analysis-reuse-mode=0 / no-lossless / cbqpoffs=0 / crqpoffs=0 / rc=abr / bitrate=10000 / qcomp=0.60 / qpstep=4 / stats-write=0 / stats-read=0 / ipratio=1.40 / pbratio=1.30 / aq-mode=1 / aq-strength=0.00 / cutree / zone-count=0 / no-strict-cbr / qg-size=32 / no-rc-grain / qpmax=69 / qpmin=0 / no-const-vbv / sar=1 / overscan=0 / videoformat=5 / range=0 / colorprim=9 / transfer=16 / colormatrix=9 / chromaloc=0 / display-window=0 / max-cll=0,0 / min-luma=0 / max-luma=1023 / log2-max-poc-lsb=8 / vui-timing-info / vui-hrd-info / slices=1 / no-opt-qp-pps / no-opt-ref-list-length-pps / no-multi-pass-opt-rps / scenecut-bias=0.05 / no-opt-cu-delta-qp / no-aq-motion / no-hdr / no-hdr-opt / no-dhdr10-opt / analysis-reuse-level=5 / scale-factor=0 / refine-intra=0 / refine-inter=0 / refine-mv=0 / no-limit-sao / ctu-info=0 / no-lowpass-dct / refine-mv-type=0 / copy-pic=1
Language : English
Default : Yes
Forced : No
Color range : Limited
Color primaries : BT.2020
Transfer characteristics : PQ
Matrix coefficients : BT.2020 non-constant












Audio
ID : 2
Format : DTS XLL X
Format/Info : Digital Theater Systems
Commercial name : DTS-HD Master Audio
Codec ID : A_DTS
Duration : 2 h 21 min
Bit rate mode : Variable
Bit rate : 4 227 kb/s
Channel(s) : 8 channels
Channel(s)_Original : Object Based
Channel layout : Object Based
Sampling rate : 48.0 kHz
Frame rate : 93.750 FPS (512 SPF)
Bit depth : 24 bits
Stream size : 4.18 GiB (30%)
Title : [English DTS-HD] [Dzrg Torrents]
Language : English
Default : Yes
Forced : No

Text
ID : 3
Format : PGS
Muxing mode : zlib
Codec ID : S_HDMV/PGS
Codec ID/Info : Picture based subtitle format used on BDs/HD-DVDs
Duration : 2 h 21 min
Bit rate : 30.2 kb/s
Count of elements : 3250
Stream size : 30.5 MiB (0%)
Title : [PGS] [Dzrg Torrents]
Language : English
Default : Yes
Forced : No

Menu
00:00:00.000 : :Chapter 1
00:01:40.100 : :Chapter 2
00:06:36.229 : :Chapter 3
00:12:45.932 : :Chapter 4
00:14:52.517 : :Chapter 5
00:16:12.513 : :Chapter 6
00:18:56.218 : :Chapter 7
00:23:50.387 : :Chapter 8
00:28:50.729 : :Chapter 9
00:31:21.838 : :Chapter 10
00:38:50.161 : :Chapter 11
00:44:45.725 : :Chapter 12
00:47:37.813 : :Chapter 13
00:49:39.935 : :Chapter 14
00:53:43.345 : :Chapter 15
00:57:28.403 : :Chapter 16
01:01:23.722 : :Chapter 17
01:03:23.758 : :Chapter 18
01:07:10.985 : :Chapter 19
01:11:53.476 : :Chapter 20
01:19:10.079 : :Chapter 21
01:22:29.945 : :Chapter 22
01:27:29.202 : :Chapter 23
01:30:13.366 : :Chapter 24
01:34:19.028 : :Chapter 25
01:36:57.228 : :Chapter 26
01:42:24.472 : :Chapter 27
01:45:40.334 : :Chapter 28
01:50:03.597 : :Chapter 29
01:55:33.343 : :Chapter 30
02:00:07.409 : :Chapter 31
02:03:16.055 : :Chapter 32
02:06:02.513 : :Chapter 33
02:08:42.924 : :Chapter 34
02:09:47.405 : :Chapter 35






[font=Comic Sans MS]Seeding From High Server[/font]

Discussion

Comments 0

Post Your Comment

Files in this torrent

FILENAMESIZE
Harry Potter And The Prisoner Of Azkaban (2004) 2160p UHD BluRay x265 10Bit HEVC English DTS-HD [Dzrg Torrents].mkv13.9 GB

Alternative Torrents for 'Harry Potter And Prisoner Of Azkaban UHD BluRay Bit HEVC English DTSHD Dzrg Torrents'.

There are no alternative torrents found.