Harry Potter And The Deathly Hallows Part 2 (2011) 2160p UHD BluRay X265 10Bit HEVC English DTS-HD [Dzrg Torrents®]

Torrent Details

Harry Potter And The Deathly Hallows Part 2 (2011) 2160p UHD BluRay x265 10Bit HEVC English DTS-HD [Dzrg Torrents®]

NAME
Harry Potter And The Deathly Hallows Part 2 (2011) 2160p UHD BluRay x265 10Bit HEVC English DTS-HD [Dzrg Torrents®].torrent
CATEGORY
Movies
INFOHASH
a194bd2368fc93b5fbf623a65aa0b88103e32c8c
SIZE
12.4 GB in 1 file
ADDED
Uploaded on 18-06-2019 by our crawler pet called "Spidey".
SWARM
0 seeders & 0 peers
RATING
No votes yet.

Please login to vote for this torrent.


Description









Harry Potter And The Deathly Hallows Part 2 (2011) 2160p UHD BluRay x265 10Bit HEVC English DTS-HD [Dzrg Torrents®]











General

Unique ID                                : 185967581192264070378595347060647213535 (0x8BE80DA70EB5E705A03EAF14A55B39DF)

Format                                   : Matroska

Format version                           : Version 4

File size                                : 12.4 GiB

Duration                                 : 2 h 10 min

Overall bit rate mode                    : Variable

Overall bit rate                         : 13.7 Mb/s

Movie name                               : Harry Potter And The Deathly Hallows Part 2 (2011) 2160p UHD BluRay x265 10Bit HEVC English DTS-HD [Dzrg Torrents®].mkv

Encoded date                             : UTC 2019-06-12 14:57:57

Writing application                      : mkvmerge v13.0.0 ('The Juggler') 64bit

Writing library                          : libebml v1.3.4 + libmatroska v1.4.5



Video

ID                                       : 1

Format                                   : HEVC

Format/Info                              : High Efficiency Video Coding

Format profile                           : Main [email protected]@Main

Codec ID                                 : V_MPEGH/ISO/HEVC

Duration                                 : 2 h 10 min

Bit rate                                 : 9 857 kb/s

Width                                    : 3 840 pixels

Height                                   : 1 600 pixels

Display aspect ratio                     : 2.40:1

Frame rate mode                          : Constant

Frame rate                               : 23.976 (24000/1001) FPS

Color space                              : YUV

Chroma subsampling                       : 4:2:0

Bit depth                                : 10 bits

Bits/(Pixel*Frame)                       : 0.067

Stream size                              : 8.98 GiB (72%)

Title                                    : Harry Potter And The Deathly Hallows Part 2 (2011) 2160p UHD BluRay x265 10Bit HEVC English DTS-HD [Dzrg Torrents®].mkv

Writing library                          : x265 2.6:[Windows][GCC 7.3.0][64 bit] 10bit

Encoding settings                        : cpuid=1050111 / frame-threads=3 / numa-pools=8 / wpp / no-pmode / no-pme / no-psnr / no-ssim / log-level=2 / input-csp=1 / input-res=3840x1600 / interlace=0 / total-frames=0 / level-idc=0 / high-tier=1 / uhd-bd=0 / ref=1 / no-allow-non-conformance / no-repeat-headers / annexb / no-aud / no-hrd / info / hash=0 / no-temporal-layers / open-gop / min-keyint=24 / keyint=240 / bframes=3 / b-adapt=0 / b-pyramid / bframe-bias=0 / rc-lookahead=5 / lookahead-slices=8 / scenecut=0 / no-intra-refresh / ctu=32 / min-cu-size=16 / no-rect / no-amp / max-tu-size=32 / tu-inter-depth=1 / tu-intra-depth=1 / limit-tu=0 / rdoq-level=0 / dynamic-rd=0.00 / no-ssim-rd / no-signhide / no-tskip / nr-intra=0 / nr-inter=0 / no-constrained-intra / strong-intra-smoothing / max-merge=2 / limit-refs=0 / no-limit-modes / me=0 / subme=0 / merange=57 / temporal-mvp / no-weightp / no-weightb / no-analyze-src-pics / deblock=0:0 / no-sao / no-sao-non-deblock / rd=2 / early-skip / rskip / fast-intra / no-tskip-fast / no-cu-lossless / no-b-intra / no-splitrd-skip / rdpenalty=0 / psy-rd=2.00 / psy-rdoq=0.00 / no-rd-refine / analysis-reuse-mode=0 / no-lossless / cbqpoffs=0 / crqpoffs=0 / rc=abr / bitrate=10000 / qcomp=0.60 / qpstep=4 / stats-write=0 / stats-read=0 / ipratio=1.40 / pbratio=1.30 / aq-mode=1 / aq-strength=0.00 / cutree / zone-count=0 / no-strict-cbr / qg-size=32 / no-rc-grain / qpmax=69 / qpmin=0 / no-const-vbv / sar=1 / overscan=0 / videoformat=5 / range=0 / colorprim=9 / transfer=16 / colormatrix=9 / chromaloc=0 / display-window=0 / max-cll=0,0 / min-luma=0 / max-luma=1023 / log2-max-poc-lsb=8 / vui-timing-info / vui-hrd-info / slices=1 / no-opt-qp-pps / no-opt-ref-list-length-pps / no-multi-pass-opt-rps / scenecut-bias=0.05 / no-opt-cu-delta-qp / no-aq-motion / no-hdr / no-hdr-opt / no-dhdr10-opt / analysis-reuse-level=5 / scale-factor=0 / refine-intra=0 / refine-inter=0 / refine-mv=0 / no-limit-sao / ctu-info=0 / no-lowpass-dct / refine-mv-type=0 / copy-pic=1

Language                                 : English

Default                                  : Yes

Forced                                   : No

Color range                              : Limited

Color primaries                          : BT.2020

Transfer characteristics                 : PQ

Matrix coefficients                      : BT.2020 non-constant











Audio

ID                                       : 2

Format                                   : DTS XLL X

Format/Info                              : Digital Theater Systems

Commercial name                          : DTS-HD Master Audio

Codec ID                                 : A_DTS

Duration                                 : 2 h 10 min

Bit rate mode                            : Variable

Bit rate                                 : 3 787 kb/s

Channel(s)                               : 8 channels

Channel(s)_Original                      : Object Based

Channel layout                           : Object Based

Sampling rate                            : 48.0 kHz

Frame rate                               : 93.750 FPS (512 SPF)

Bit depth                                : 24 bits

Stream size                              : 3.45 GiB (28%)

Title                                    : [English DTS-HD] [Dzrg Torrents®]

Language                                 : English

Default                                  : Yes

Forced                                   : No



Text

ID                                       : 3

Format                                   : PGS

Muxing mode                              : zlib

Codec ID                                 : S_HDMV/PGS

Codec ID/Info                            : Picture based subtitle format used on BDs/HD-DVDs

Duration                                 : 2 h 9 min

Bit rate                                 : 19.8 kb/s

Count of elements                        : 2058

Stream size                              : 18.3 MiB (0%)

Title                                    : [PGS] [Dzrg Torrents®]

Language                                 : English

Default                                  : Yes

Forced                                   : No



Menu

00:00:00.000                             : :Chapter 1

00:02:58.261                             : :Chapter 2

00:06:21.214                             : :Chapter 3

00:10:21.913                             : :Chapter 4

00:14:28.034                             : :Chapter 5

00:20:05.663                             : :Chapter 6

00:22:47.825                             : :Chapter 7

00:25:38.662                             : :Chapter 8

00:30:46.845                             : :Chapter 9

00:34:33.697                             : :Chapter 10

00:40:32.305                             : :Chapter 11

00:45:52.291                             : :Chapter 12

00:50:15.513                             : :Chapter 13

00:54:41.069                             : :Chapter 14

00:59:01.288                             : :Chapter 15

01:03:42.110                             : :Chapter 16

01:07:06.105                             : :Chapter 17

01:11:24.447                             : :Chapter 18

01:14:38.975                             : :Chapter 19

01:23:40.807                             : :Chapter 20

01:29:17.769                             : :Chapter 21

01:31:24.980                             : :Chapter 22

01:36:37.709                             : :Chapter 23

01:41:09.146                             : :Chapter 24

01:46:42.354                             : :Chapter 25

01:50:18.403                             : :Chapter 26

01:54:16.683                             : :Chapter 27

01:58:12.877                             : :Chapter 28













Seeding From High Server



Discussion

Comments 0

Post Your Comment

Files in this torrent

FILENAMESIZE
Harry Potter And The Deathly Hallows Part 2 (2011) 2160p UHD BluRay x265 10Bit HEVC English DTS-HD [Dzrg Torrents®].mkv12.4 GB

Alternative Torrents for 'Harry Potter And Deathly Hallows Part UHD BluRay Bit HEVC English DTSHD Dzrg Torrents®'.

There are no alternative torrents found.