Extraction Day 2014 X264 720p Esub BluRay Dual Audio English Hindi GOPISAHI (1)

Torrent Details

Extraction Day 2014 x264 720p Esub BluRay Dual Audio English Hindi GOPISAHI (1)
Extraction Day 2014 x264 720p Esub BluRay Dual Audio English Hindi GOPISAHI (1)

NAME
Extraction Day 2014 x264 720p Esub BluRay Dual Audio English Hindi GOPISAHI (1).torrent
CATEGORY
Movies
INFOHASH
bf3cf9b84ca268d00d79e20f506d32893702447c
SIZE
831 MB in 1 file
ADDED
Uploaded on 19-06-2019 by our crawler pet called "Spidey".
SWARM
0 seeders & 0 peers
RATING
No votes yet.

Please login to vote for this torrent.


Description

Extraction Day 2014 x264 720p Esub BluRay Dual Audio English Hindi GOPISAHI

Format : Matroska
Format version : Version 4
File size : 831 MiB
Duration : 1 h 46 min
Overall bit rate : 1 096 kb/s
Movie name : Extraction Day 2014 GOPISAHI

Video
Format : AVC
Format/Info : Advanced Video Codec
Format profile : [email protected]
Duration : 1 h 46 min
Bit rate : 900 kb/s
Width : 1 280 pixels
Height : 534 pixels
Display aspect ratio : 2.40:1
Original display aspect ratio : 2.40:1
Frame rate mode : Constant
Frame rate : 23.976 (24000/1001) FPS
Color space : YUV
Chroma subsampling : 4:2:0
Bit depth : 8 bits
Scan type : Progressive
Bits/(Pixel*Frame) : 0.055
Stream size : 682 MiB (82%)
Title : GOPISAHI
Writing library : x264 core 148

Audio #1
Format : AAC LC
Duration : 1 h 46 min
Bit rate : 96.0 kb/s
Channel(s) : 2 channels
Channel layout : L R
Sampling rate : 48.0 kHz
Frame rate : 46.875 FPS (1024 SPF)
Compression mode : Lossy
Stream size : 73.1 MiB (9%)
Title : GOPISAHI
Language : Hindi

Audio #2
Format : AAC LC
Duration : 1 h 46 min
Bit rate : 96.0 kb/s
Channel(s) : 2 channels
Channel layout : L R
Sampling rate : 48.0 kHz
Frame rate : 46.875 FPS (1024 SPF)
Compression mode : Lossy
Stream size : 73.2 MiB (9%)
Title : GOPISAHI
Language : English

Text #1
Language : English

Text #2
Language : Hindi





Discussion

Comments 0

Post Your Comment

Files in this torrent

FILENAMESIZE
Extraction Day 2014 x264 720p Esub BluRay Dual Audio English Hindi GOPISAHI (1).mkv831.1 MB

Alternative Torrents for 'Extraction Day Esub BluRay Dual Audio English Hindi GOPISAHI'.

TORRENT NAMEADDEDSIZESEEDSPEERSHEALTH
6/19/2019831 MB00