Shiva The Super Hero 3 2019 Hindi Dubbed Movie 720p[Web-dl X264 AC3-NewSongBD]

Torrent Details


Shiva The Super Hero 3 2019 Hindi Dubbed Movie 720p[Web-dl x264 AC3-NewSongBD]

NAME
Shiva The Super Hero 3 2019 Hindi Dubbed Movie 720p[Web-dl x264 AC3-NewSongBD].torrent
CATEGORY
Movies
INFOHASH
3d95afe58752437418a496234c2ec0ee82cab031
SIZE
1.2 GB in 1 file
ADDED
Uploaded on 20-06-2019 by our crawler pet called "Spidey".
SWARM
0 seeders & 0 peers
RATING
No votes yet.

Please login to vote for this torrent.


Description





Shiva The Super Hero 3 2019 Hindi Dubbed Movie 720p[Web-dl x264 AC3-NewSongBD]







[code]

General

Complete name                            : Shiva The Super Hero 3 2019 Hindi Dubbed Movie 720p[Web-dl x264 AC3-NewSongBD].mp4

Format                                   : MPEG-4

Format profile                           : Base Media

Codec ID                                 : isom (isom/iso2/avc1/mp41)

File size                                : 1.19 GiB

Duration                                 : 2 h 14 min

Overall bit rate                         : 1 269 kb/s

Video

ID                                       : 1

Format                                   : AVC

Format/Info                              : Advanced Video Codec

Format profile                           : [email protected]

Format settings                          : CABAC / 2 Ref Frames

Format settings, CABAC                   : Yes

Format settings, RefFrames               : 2 frames

Codec ID                                 : avc1

Codec ID/Info                            : Advanced Video Coding

Duration                                 : 2 h 14 min

Bit rate                                 : 1 073 kb/s

Width                                    : 1 280 pixels

Height                                   : 720 pixels

Display aspect ratio                     : 16:9

Frame rate mode                          : Constant

Frame rate                               : 25.000 FPS

Color space                              : YUV

Chroma subsampling                       : 4:2:0

Bit depth                                : 8 bits

Scan type                                : Progressive

Bits/(Pixel*Frame)                       : 0.047

Stream size                              : 1.00 GiB (85%)

Writing library                          : x264

Audio

ID                                       : 2

Format                                   : AC-3

Format/Info                              : Audio Coding 3

Codec ID                                 : ac-3

Duration                                 : 2 h 14 min

Bit rate mode                            : Constant

Bit rate                                 : 192 kb/s

Channel(s)                               : 2 channels

Channel positions                        : Front: L R

Sampling rate                            : 44.1 kHz

Frame rate                               : 28.711 FPS (1536 SPF)

Bit depth                                : 16 bits

Compression mode                         : Lossy

Stream size                              : 184 MiB (15%)

[/code]















Discussion

Comments 0

Post Your Comment

Files in this torrent

FILENAMESIZE
Shiva The Super Hero 3 2019 Hindi Dubbed Movie 720p[Web-dl x264 AC3-NewSongBD].mp41.2 GB

Alternative Torrents for 'Shiva Super Hero Hindi Dubbed Movie NewSongBD'.

TORRENT NAMEADDEDSIZESEEDSPEERSHEALTH
6/20/20191.2 GB00