Warning! Do NOT Download Without a VPN!
Your IP Address is .   Location is
Your Internet Provider and Government can track your download activities! Hide your IP ADDRESS with a VPN!
We strongly recommend using a VPN service to anonymize your torrent downloads. It's FREE!
START YOUR FREE TRIAL NOW!

Stranger Things S03E01 720p WEBRip X264-METCON[rarbg]

Torrent Details

Stranger Things S03E01 720p WEBRip X264-METCON[rarbg]

NAME
Stranger Things S03E01 720p WEBRip X264-METCON[rarbg].torrent
CATEGORY
Television
INFOHASH
9e8b84320051aab91f1e0bab042f5bc3b1fec118
SIZE
1.6 GB in 4 files
ADDED
Uploaded on 04-07-2019 by our crawler pet called "Spidey".
SWARM
1327 seeders & 409 peers
RATING
No votes yet.

Please login to vote for this torrent.


Description

Stranger.Things.S03E01.720p.WEBRip.X264-METCON
https://www.imdb.com/title/tt4574334/


Mediainfo:

Video:
Format : AVC
Duration : 50 min 33 s
Bit rate : 3 850 kb/s
Width : 1 280 pixels
Height : 640 pixels
Frame rate : 23.976 (24000/1001) FPS
Stream size : 1.36 GiB (84%)

Audio:
Format : E-AC-3
Duration : 50 min 33 s
Bit rate : 640 kb/s
Channel(s) : 6 channels
Stream size : 231 MiB (14%)
Language : English


Screenshots:

Discussion

Comments 0

Post Your Comment

Files in this torrent

FILENAMESIZE
RARBG.txt30 B
RARBG_DO_NOT_MIRROR.exe99 B
Stranger.Things.S03E01.720p.WEBRip.X264-METCON.mkv1.6 GB
stranger.things.s03e01.720p.webrip.x264-metcon.nfo631 B

Alternative Torrents for 'Stranger Things SE XMETCON'.

TORRENT NAME ADDED SIZE SEEDS PEERS HEALTH
7/4/2019 4.1 GB 3188 2002
7/4/2019 2.2 GB 1838 1432
Yesterday 6.8 GB 1817 1378
7/4/2019 2.7 GB 1295 238
7/4/2019 2.8 GB 1284 253
7/4/2019 1.4 GB 1271 493
7/4/2019 1.6 GB 1226 707
7/4/2019 2.2 GB 1045 469
7/4/2019 1.3 GB 1003 431
7/4/2019 1.5 GB 882 339
7/4/2019 22.3 GB 852 658
7/4/2019 2 GB 839 383
7/4/2019 1.5 GB 831 337
7/4/2019 2.3 GB 819 331