Save The Last Dance 2001 X264 720p Esub BluRay Dual Audio English Hindi GOPISAHI

Torrent Details

Save The Last Dance 2001 x264 720p Esub BluRay Dual Audio English Hindi GOPISAHI
Save The Last Dance 2001 x264 720p Esub BluRay Dual Audio English Hindi GOPISAHI

NAME
Save The Last Dance 2001 x264 720p Esub BluRay Dual Audio English Hindi GOPISAHI.torrent
CATEGORY
Movies
INFOHASH
cdedf5fdadb527023b52f26ab62174890d6566a6
SIZE
1.1 GB in 1 file
ADDED
Uploaded on 04-07-2019 by our crawler pet called "Spidey".
SWARM
0 seeders & 0 peers
RATING
No votes yet.

Please login to vote for this torrent.


Description

Save The Last Dance 2001 x264 720p Esub BluRay Dual Audio English Hindi GOPISAHI

Format : Matroska
Format version : Version 4
File size : 1.08 GiB
Duration : 1 h 53 min
Overall bit rate : 1 362 kb/s
Movie name : Save The Last Dance 2001 GOPISAHI

Video
Format : AVC
Format/Info : Advanced Video Codec
Format profile : [email protected]
Codec ID : V_MPEG4/ISO/AVC
Duration : 1 h 52 min
Bit rate : 1 050 kb/s
Width : 1 280 pixels
Height : 720 pixels
Display aspect ratio : 16:9
Frame rate mode : Constant
Frame rate : 23.976 (24000/1001) FPS
Color space : YUV
Chroma subsampling : 4:2:0
Bit depth : 8 bits
Scan type : Progressive
Bits/(Pixel*Frame) : 0.048
Stream size : 848 MiB (77%)
Title : GOPISAHI
Writing library : x264 core 157

Audio #1
Format : AAC LC
Duration : 1 h 53 min
Bit rate : 192 kb/s
Channel(s) : 6 channels
Channel layout : C L R Ls Rs LFE
Sampling rate : 48.0 kHz
Frame rate : 46.875 FPS (1024 SPF)
Compression mode : Lossy
Delay relative to video : -11 ms
Stream size : 155 MiB (14%)
Title : GOPISAHI
Language : Hindi

Audio #2
Format : AAC LC
Duration : 1 h 52 min
Bit rate : 122 kb/s
Channel(s) : 2 channels
Channel layout : L R
Sampling rate : 48.0 kHz
Frame rate : 46.875 FPS (1024 SPF)
Compression mode : Lossy
Delay relative to video : -11 ms
Stream size : 98.6 MiB (9%)
Title : GOPISAHI
Language : English

Text
Language : English





Discussion

Comments 0

Post Your Comment

Files in this torrent

FILENAMESIZE
Save The Last Dance 2001 x264 720p Esub BluRay Dual Audio English Hindi GOPISAHI.mkv1.1 GB

Alternative Torrents for 'Save Last Dance Esub BluRay Dual Audio English Hindi GOPISAHI'.

TORRENT NAMEADDEDSIZESEEDSPEERSHEALTH
7/4/20191.1 GB00