Architecture 101 2012 KOREAN 1080p BluRay X264 DTS-VHD

Torrent Details

Architecture 101<span style=color:#777> 2012</span> KOREAN 1080p BluRay x264 DTS-VHD

NAME
Architecture 101 2012 KOREAN 1080p BluRay x264 DTS-VHD.torrent
CATEGORY
Movies
INFOHASH
c1572628017c5ee84e53bfe1718f54a434b05261
SIZE
13.2 GB in 2 files
ADDED
Uploaded on 04-07-2019 by our crawler pet called "Spidey".
SWARM
0 seeders & 1 peers
RATING
No votes yet.

Please login to vote for this torrent.


Description

Architecture.101.2012.KOREAN.1080p.BluRay.x264.DTS-VHD
https://www.imdb.com/title/tt2337981/

Poster:

Mediainfo:

Video:
Format : AVC
Duration : 1 h 56 min
Bit rate : 14.7 Mb/s
Width : 1 916 pixels
Height : 820 pixels
Frame rate : 23.976 (24000/1001) FPS
Stream size : 12.0 GiB (91%)

Audio:
Format : DTS
Duration : 1 h 56 min
Bit rate : 1 510 kb/s
Channel(s) : 6 channels
Stream size : 1.23 GiB (9%)
Language : Korean


Screenshots:



Discussion

Comments 0

Post Your Comment

Files in this torrent

FILENAMESIZE
Architecture.101.2012.KOREAN.1080p.BluRay.x264.DTS-VHD.mkv13.2 GB
RARBG.txt31 B

Alternative Torrents for 'Architecture KOREAN BluRay DTSVHD'.

There are no alternative torrents found.