El Narco 2010 SPANISH 1080p BluRay X264 DD 5.1-HaB

Torrent Details

El Narco 2010 SPANISH 1080p BluRay x264 DD 5.1-HaB

NAME
El Narco 2010 SPANISH 1080p BluRay x264 DD 5.1-HaB.torrent
CATEGORY
Movies
INFOHASH
a965bd74b9420e4a451b7737fc378f43ea353e51
SIZE
17.9 GB in 2 files
ADDED
Uploaded on 04-07-2019 by our crawler pet called "Spidey".
SWARM
0 seeders & 0 peers
RATING
No votes yet.

Please login to vote for this torrent.


Description

El.Narco.2010.SPANISH.1080p.BluRay.x264.DD5.1-HaB
https://www.imdb.com/title/tt1692190/

Poster:

Mediainfo:

Video:
Format : AVC
Duration : 2 h 28 min
Bit rate : 16.6 Mb/s
Width : 1 920 pixels
Height : 800 pixels
Frame rate : 23.976 (24000/1001) FPS
Stream size : 17.2 GiB (96%)

Audio:
Format : AC-3
Duration : 2 h 28 min
Bit rate : 640 kb/s
Channel(s) : 6 channels
Stream size : 681 MiB (4%)
Language : Spanish


Screenshots:



Discussion

Comments 0

Post Your Comment

Files in this torrent

FILENAMESIZE
El.Narco.2010.1080p.BluRay.AC3.x264-HaB.mkv17.9 GB
RARBG.txt31 B

Alternative Torrents for 'El Narco SPANISH BluRay DD .HaB'.

There are no alternative torrents found.