Casuals The Story Of The Legendary Terrace Fashion 2011 1080p AMZN WEBRip DDP2.0 X264-NTb

Torrent Details

Casuals The Story Of The Legendary Terrace Fashion 2011 1080p AMZN WEBRip DDP2.0 x264<span style=color:#fc9c6d>-NTb</span>

NAME
Casuals The Story Of The Legendary Terrace Fashion 2011 1080p AMZN WEBRip DDP2.0 x264-NTb.torrent
CATEGORY
Movies
INFOHASH
b1761efdf697691cea877fef08a8eb28d8e49829
SIZE
6.3 GB in 2 files
ADDED
Uploaded on 06-07-2019 by our crawler pet called "Spidey".
SWARM
0 seeders & 0 peers
RATING
No votes yet.

Please login to vote for this torrent.


Description

Casuals.The.Story.Of.The.Legendary.Terrace.Fashion.2011.1080p.AMZN.WEBRip.DDP2.0.x264-NTb
https://www.imdb.com/title/tt2120743/

Poster:

Mediainfo:

Video:
Format : AVC
Duration : 1 h 12 min
Bit rate : 12.1 Mb/s
Width : 1 920 pixels
Height : 1 080 pixels
Frame rate : 25.000 FPS
Stream size : 6.18 GiB (98%)

Audio:
Format : E-AC-3
Duration : 1 h 12 min
Bit rate : 224 kb/s
Channel(s) : 2 channels
Stream size : 117 MiB (2%)
Language : English


Screenshots:



Discussion

Comments 0

Post Your Comment

Files in this torrent

FILENAMESIZE
Casuals.The.Story.Of.The.Legendary.Terrace.Fashion.2011.1080p.WEB-DL.DDP2.0.H.264-NTb.mkv6.3 GB
RARBG.txt31 B

Alternative Torrents for 'Casuals Story Of Legendary Terrace Fashion DDP'.

There are no alternative torrents found.