Warning! Do NOT Download Without a VPN!
Your IP Address is .   Location is United States
Your Internet Provider and Government can track your download activities! Hide your IP ADDRESS with a VPN!
We strongly recommend using a VPN service to anonymize your torrent downloads. It's FREE!
START YOUR FREE TRIAL NOW!

Spider-Man Far From Home 2019 Movies HDTC X264 Clean Audio New Source With Sample ☻rDX☻

Torrent Details

Spider-Man Far from Home 2019 Movies HDTC x264 Clean Audio New Source with Sample ☻rDX☻

NAME
Spider-Man Far from Home 2019 Movies HDTC x264 Clean Audio New Source with Sample ☻rDX☻.torrent
CATEGORY
Movies
INFOHASH
07a2ed3063d4f721607e85ecad7d8bacfc90e68d
SIZE
705 MB in 0 files
ADDED
Uploaded on 07-07-2019 by our crawler pet called "Spidey".
SWARM
2 seeders & 305 peers
RATING
No votes yet.

Please login to vote for this torrent.


Description

Spider-Man: Far from Home 2019 Movies HDTC x264 Clean Audio New Source with Sample ☻rDX☻====================================================

SCREEN SHOTS:



or

https://iphonehosting.eu/19/attorney/jeans/1.html

File size : 697 MiB
Duration : 1 h 52 min
Overall bit rate : 863 kb/s
Movie name : Spider-Man: Far from Home 2019 Movies HDTC x264 Clean Audio New Source ☻rDX☻

Video
ID : 2
Format : AVC
Format/Info : Advanced Video Codec
Format profile : [email protected]
Format settings, CABAC : Yes
Format settings, ReFrames : 2 frames
Format settings, GOP : M=1, N=12
Codec ID : V_MPEG4/ISO/AVC
Duration : 1 h 52 min
Bit rate : 782 kb/s
Width : 700 pixels
Height : 394 pixels
Display aspect ratio : 16:9
Frame rate mode : Constant
Frame rate : 25.000 FPS
Color space : YUV
Chroma subsampling : 4:2:0
Bit depth : 8 bits
Scan type : Progressive
Bits/(Pixel*Frame) : 0.113
Stream size : 632 MiB (91%)
Title : ☻rDX☻
Default : Yes
Forced : No

Audio
ID : 1
Format : AC-3
Format/Info : Audio Coding 3
Mode extension : CM (complete main)
Format settings, Endianness : Big
Codec ID : A_AC3
Duration : 1 h 52 min
Bit rate mode : Constant
Bit rate : 64.0 kb/s
Channel(s) : 2 channels
Channel positions : Front: L R
Sampling rate : 44.1 kHz
Frame rate : 28.711 FPS (1536 spf)
Bit depth : 16 bits
Compression mode : Lossy
Stream size : 51.7 MiB (7%)
Title : ☻rDX☻
Default : Yes
Forced : No

https://www.imdb.com/title/tt6320628

Discussion

Comments 0

Post Your Comment

Torrent Files (Unavailable)

Please check back later to get a list of all files included in this torrent.

Alternative Torrents for 'SpiderMan Far from Home Movies HDTC Clean Audio Source with Sample ☻rDX☻'.

TORRENT NAME ADDED SIZE SEEDS PEERS HEALTH
7/4/2019 897 MB 1543 601
3/19/2019 14.6 GB 1314 95
6/26/2019 2.4 GB 1286 440
6/18/2019 434 MB 1167 775
4/23/2019 1.7 GB 1130 135
6/29/2019 2.5 GB 1124 288
7/2/2019 1.1 GB 1032 210
5/11/2019 2.5 GB 1021 209
4/28/2019 835 MB 967 149
6/9/2019 1.4 GB 952 220
6/28/2019 1.6 GB 939 298
7/4/2019 520 MB 812 120
4/23/2019 906 MB 788 96
6/30/2019 897 MB 738 376
11/24/2013 4.3 GB 699 19