Nosferatu 1922 COMPLETE Bluray BDrip 1080p X265 DTS-HD MA 5.1 D0ct0rLew[SEV]

Torrent Details

Nosferatu 1922 COMPLETE Bluray BDrip 1080p x265 DTS-HD MA 5.1 D0ct0rLew[SEV]
Nosferatu 1922 COMPLETE Bluray BDrip 1080p x265 DTS-HD MA 5.1 D0ct0rLew[SEV]

NAME
Nosferatu 1922 COMPLETE Bluray BDrip 1080p x265 DTS-HD MA 5.1 D0ct0rLew[SEV].torrent
CATEGORY
Movies
INFOHASH
9ea1d6677bb6923b66ae5b7968fcd444630c76f6
SIZE
14.6 GB in 4 files
ADDED
Uploaded on 20-07-2019 by our crawler pet called "Spidey".
SWARM
0 seeders & 0 peers
RATING
No votes yet.

Please login to vote for this torrent.


Description







Screenshots

Source





Encode





Media Information



Unique ID                                : 83244320985455992152273123568410970584 (0x3EA045E68376580E507C8F14194C49D8)

Complete name                            :Nosferatu 1922 COMPLETE Bluray BDrip 1080p x265 DTS-HD MA 5.1 D0ct0rLew[SEV]Nosferatu 1922 BDrip 1080p x265 DTS-HD MA 5.1 D0ct0rLew[SEV].mkv

Format                                   : Matroska

Format version                           : Version 4

File size                                : 11.1 GiB

Duration                                 : 1 h 35 min

Overall bit rate mode                    : Variable

Overall bit rate                         : 16.7 Mb/s

Movie name                               : NOSFERATU

Encoded date                             : UTC 2019-07-17 00:21:05

Writing application                      : mkvmerge v29.0.0 ('Like It Or Not') 64-bit

Writing library                          : libebml v1.3.6 + libmatroska v1.4.9



Video

ID                                       : 2

Format                                   : HEVC

Format/Info                              : High Efficiency Video Coding

Format profile                           : Main [email protected]@Main

Codec ID                                 : V_MPEGH/ISO/HEVC

Duration                                 : 1 h 35 min

Bit rate                                 : 12.4 Mb/s

Width                                    : 1 920 pixels

Height                                   : 1 080 pixels

Display aspect ratio                     : 16:9

Frame rate mode                          : Constant

Frame rate                               : 23.976 (24000/1001) FPS

Color space                              : YUV

Chroma subsampling                       : 4:2:0

Bit depth                                : 10 bits

Bits/(Pixel*Frame)                       : 0.249

Stream size                              : 8.24 GiB (74%)

Writing library                          : x265 3.0_Au+32-a46ded2c1411:[Windows][MSVC 1921][64 bit] 10bit

Encoding settings                        : cpuid=1111039 / frame-threads=3 / numa-pools=8 / wpp / no-pmode / no-pme / no-psnr / no-ssim / log-level=2 / input-csp=1 / input-res=1920x1080 / interlace=0 / total-frames=136932 / level-idc=0 / high-tier=1 / uhd-bd=0 / ref=5 / no-allow-non-conformance / no-repeat-headers / annexb / no-aud / no-hrd / info / hash=0 / no-temporal-layers / open-gop / min-keyint=23 / keyint=250 / gop-lookahead=0 / bframes=16 / b-adapt=2 / b-pyramid / bframe-bias=0 / rc-lookahead=90 / lookahead-slices=0 / scenecut=40 / radl=0 / no-splice / no-intra-refresh / ctu=64 / min-cu-size=8 / no-rect / no-amp / max-tu-size=32 / tu-inter-depth=3 / tu-intra-depth=3 / limit-tu=4 / rdoq-level=2 / dynamic-rd=0.00 / no-ssim-rd / signhide / no-tskip / nr-intra=0 / nr-inter=0 / no-constrained-intra / no-strong-intra-smoothing / max-merge=4 / limit-refs=1 / limit-modes / me=3 / subme=7 / merange=92 / temporal-mvp / weightp / weightb / no-analyze-src-pics / deblock=3:3 / no-sao / no-sao-non-deblock / rd=6 / early-skip / rskip / no-fast-intra / no-tskip-fast / no-cu-lossless / b-intra / no-splitrd-skip / rdpenalty=0 / psy-rd=1.00 / psy-rdoq=1.00 / no-rd-refine / no-lossless / cbqpoffs=0 / crqpoffs=0 / rc=crf / crf=19.0 / qcomp=0.60 / qpstep=4 / stats-write=0 / stats-read=0 / ipratio=1.40 / pbratio=1.30 / aq-mode=2 / aq-strength=1.00 / cutree / zone-count=0 / no-strict-cbr / qg-size=32 / no-rc-grain / qpmax=69 / qpmin=0 / no-const-vbv / sar=0 / overscan=0 / videoformat=5 / range=0 / colorprim=2 / transfer=2 / colormatrix=2 / chromaloc=0 / display-window=0cll=0,0 / min-luma=0 / max-luma=1023 / log2-max-poc-lsb=8 / vui-timing-info / vui-hrd-info / slices=1 / no-opt-qp-pps / no-opt-ref-list-length-pps / no-multi-pass-opt-rps / scenecut-bias=0.05 / no-opt-cu-delta-qp / no-aq-motion / no-hdr / no-hdr-opt / no-dhdr10-opt / no-idr-recovery-sei / analysis-reuse-level=5 / scale-factor=0 / refine-intra=0 / refine-inter=0 / refine-mv=0 / refine-ctu-distortion=0 / no-limit-sao / ctu-info=0 / no-lowpass-dct / refine-analysis-type=0 / copy-pic=1 / max-ausize-factor=1.0 / no-dynamic-refine / no-single-sei / no-hevc-aq / no-svt / no-field / qp-adaptation-range=1.00

Language                                 : German

Default                                  : Yes

Forced                                   : No



Audio #1

ID                                       : 3

Format                                   : DTS XLL

Format/Info                              : Digital Theater Systems

Commercial name                          : DTS-HD Master Audio

Codec ID                                 : A_DTS

Duration                                 : 1 h 35 min

Bit rate mode                            : Variable

Bit rate                                 : 3 912 kb/s

Channel(s)                               : 6 channels

Channel layout                           : C L R Ls Rs LFE

Sampling rate                            : 48.0 kHz

Frame rate                               : 93.750 FPS (512 SPF)

Bit depth                                : 24 bits

Compression mode                         : Lossless

Stream size                              : 2.60 GiB (23%)

Title                                    : Surround 5.1

Default                                  : Yes

Forced                                   : No



Audio #2

ID                                       : 4

Format                                   : AC-3

Format/Info                              : Audio Coding 3

Commercial name                          : Dolby Digital

Codec ID                                 : A_AC3

Duration                                 : 1 h 35 min

Bit rate mode                            : Constant

Bit rate                                 : 192 kb/s

Channel(s)                               : 2 channels

Channel layout                           : L R

Sampling rate                            : 48.0 kHz

Frame rate                               : 31.250 FPS (1536 SPF)

Bit depth                                : 16 bits

Compression mode                         : Lossy

Stream size                              : 131 MiB (1%)

Title                                    : Commentary by film historian David Kalat

Language                                 : English

Service kind                             : Complete Main

Default                                  : No

Forced                                   : No



Audio #3

ID                                       : 5

Format                                   : AC-3

Format/Info                              : Audio Coding 3

Commercial name                          : Dolby Digital

Codec ID                                 : A_AC3

Duration                                 : 1 h 35 min

Bit rate mode                            : Constant

Bit rate                                 : 192 kb/s

Channel(s)                               : 2 channels

Channel layout                           : L R

Sampling rate                            : 48.0 kHz

Frame rate                               : 31.250 FPS (1536 SPF)

Bit depth                                : 16 bits

Compression mode                         : Lossy

Stream size                              : 131 MiB (1%)

Title                                    : Commentary by historian R. Dixon Smith and critic Brad Stevens

Language                                 : English

Service kind                             : Complete Main

Default                                  : No

Forced                                   : No



Text

ID                                       : 1

Format                                   : UTF-8

Codec ID                                 : S_TEXT/UTF8

Codec ID/Info                            : UTF-8 Plain Text

Duration                                 : 1 h 31 min

Bit rate                                 : 14 b/s

Count of elements                        : 240

Stream size                              : 9.87 KiB (0%)

Title                                    : unless you can read German you need these

Language                                 : English

Default                                  : Yes

Forced                                   : No



Menu

00:00:00.000                             : en:Chapter 01

00:03:31.169                             : en:Chapter 02

00:10:22.622                             : en:Chapter 03

00:13:47.284                             : en:Chapter 04

00:18:47.543                             : en:Chapter 05

00:26:18.159                             : en:Chapter 06

00:32:51.469                             : en:Chapter 07

00:39:20.191                             : en:Chapter 08

00:43:15.551                             : en:Chapter 09

00:46:17.733                             : en:Chapter 10

00:50:35.157                             : en:Chapter 11

00:54:04.866                             : en:Chapter 12

01:02:08.725                             : en:Chapter 13

01:10:40.402                             : en:Chapter 14

01:16:30.002                             : en:Chapter 15

01:23:07.148                             : en:Chapter 16

01:26:30.977                             : en:Chapter 17

01:30:39.392                             : en:Chapter 18





Source Media Information



ID                                       : 0 (0x0)

Complete name                            : Nosferatu 1922 1080p GBR BluRay AVC DTS-HD MA 5.1-NOGROUPNosferatuBDMVSTREAM0002.m2ts

Format                                   : BDAV

Format/Info                              : Blu-ray Video

File size                                : 29.1 GiB

Duration                                 : 1 h 35 min

Overall bit rate mode                    : Variable

Overall bit rate                         : 43.7 Mb/s

Maximum Overall bit rate                 : 48.0 Mb/s



Video

ID                                       : 4113 (0x1011)

Menu ID                                  : 1 (0x1)

Format                                   : AVC

Format/Info                              : Advanced Video Codec

Format profile                           : [email protected]

Format settings                          : CABAC / 3 Ref Frames

Format settings, CABAC                   : Yes

Format settings, RefFrames               : 3 frames

Codec ID                                 : 27

Duration                                 : 1 h 35 min

Bit rate mode                            : Variable

Nominal bit rate                         : 35.0 Mb/s

Maximum bit rate                         : 38.0 Mb/s

Width                                    : 1 920 pixels

Height                                   : 1 080 pixels

Display aspect ratio                     : 16:9

Frame rate                               : 23.976 (24000/1001) FPS

Color space                              : YUV

Chroma subsampling                       : 4:2:0

Bit depth                                : 8 bits

Scan type                                : Progressive

Bits/(Pixel*Frame)                       : 0.704

Writing library                          : x264 core 128 r2216 198a7ea

Encoding settings                        : cabac=1 / ref=4 / deblock=0:-1:-1 / analyse=0x3:0x133 / me=umh / subme=10 / psy=1 / psy_rd=1.00:0.15 / mixed_ref=1 / me_range=24 / chroma_me=1 / trellis=2 / 8x8dct=1 / cqm=0 / deadzone=21,11 / fast_pskip=1 / chroma_qp_offset=-3 / threads=12 / lookahead_threads=2 / sliced_threads=0 / slices=4 / nr=0 / decimate=1 / interlaced=0 / bluray_compat=1 / constrained_intra=0 / bframes=3 / b_pyramid=1 / b_adapt=2 / b_bias=0 / direct=3 / weightb=1 / open_gop=1 / weightp=1 / keyint=24 / keyint_min=1 / scenecut=40 / intra_refresh=0 / rc_lookahead=24 / rc=2pass / mbtree=1 / bitrate=35000 / ratetol=1.0 / qcomp=0.60 / qpmin=0 / qpmax=69 / qpstep=4 / cplxblur=20.0 / qblur=0.5 / vbv_maxrate=38000 / vbv_bufsize=28500 / nal_hrd=vbr / ip_ratio=1.40 / aq=1:1.00

Color range                              : Limited

Color primaries                          : BT.709

Transfer characteristics                 : BT.709

Matrix coefficients                      : BT.709



Audio #1

ID                                       : 4352 (0x1100)

Menu ID                                  : 1 (0x1)

Format                                   : PCM

Format settings                          : Big / Signed

Muxing mode                              : Blu-ray

Codec ID                                 : 128

Duration                                 : 1 h 35 min

Bit rate mode                            : Constant

Bit rate                                 : 2 304 kb/s

Channel(s)                               : 2 channels

Channel layout                           : L R

Sampling rate                            : 48.0 kHz

Bit depth                                : 24 bits

Stream size                              : 1.53 GiB (5%)



Audio #2

ID                                       : 4353 (0x1101)

Menu ID                                  : 1 (0x1)

Format                                   : DTS XLL

Format/Info                              : Digital Theater Systems

Commercial name                          : DTS-HD Master Audio

Muxing mode                              : Stream extension

Codec ID                                 : 134

Duration                                 : 1 h 35 min

Bit rate mode                            : Variable

Channel(s)                               : 6 channels

Channel layout                           : C L R Ls Rs LFE

Sampling rate                            : 48.0 kHz

Frame rate                               : 93.750 FPS (512 SPF)

Bit depth                                : 24 bits

Compression mode                         : Lossless



Audio #3

ID                                       : 4354 (0x1102)

Menu ID                                  : 1 (0x1)

Format                                   : AC-3

Format/Info                              : Audio Coding 3

Commercial name                          : Dolby Digital

Codec ID                                 : 129

Duration                                 : 1 h 35 min

Bit rate mode                            : Constant

Bit rate                                 : 192 kb/s

Channel(s)                               : 2 channels

Channel layout                           : L R

Sampling rate                            : 48.0 kHz

Frame rate                               : 31.250 FPS (1536 SPF)

Bit depth                                : 16 bits

Compression mode                         : Lossy

Stream size                              : 131 MiB (0%)

Service kind                             : Complete Main



Audio #4

ID                                       : 4355 (0x1103)

Menu ID                                  : 1 (0x1)

Format                                   : AC-3

Format/Info                              : Audio Coding 3

Commercial name                          : Dolby Digital

Codec ID                                 : 129

Duration                                 : 1 h 35 min

Bit rate mode                            : Constant

Bit rate                                 : 192 kb/s

Channel(s)                               : 2 channels

Channel layout                           : L R

Sampling rate                            : 48.0 kHz

Frame rate                               : 31.250 FPS (1536 SPF)

Bit depth                                : 16 bits

Compression mode                         : Lossy

Stream size                              : 131 MiB (0%)

Service kind                             : Complete Main



Text

ID                                       : 4608 (0x1200)

Menu ID                                  : 1 (0x1)

Format                                   : PGS

Codec ID                                 : 144



We have no issue with individuals posting or re-uploading our torrents on a platform we aren't on. However, if this is something you'd like to do, please do so in a 'as-is' format. We ask that you do not create a new torrent, include all descriptions you see above including the SEV logo, tags, notes and screenshots. If you'd like to become a permanent poster on a website we don't post to, feel free to get in contact with a Sublime Encoded Video  member.



We are recruiting/training new members for SEV & seedbox providers as well as people to help out with subtitles.

As you already know, we deliver quality, so you know the standard.

If you're interested, feel free to contact any of the team members.

Discussion

Comments 0

Post Your Comment

Files in this torrent

FILENAMESIZE
Extras/Abel Ferrara on Nosferatu 1080p BDrip x265 DD 2.0 D0ct0rLew[SEV].mkv750.7 MB
Extras/Kevin Jackson on Nosferatu 1080p BDrip x265 DD 2.0 D0ct0rLew[SEV].mkv977.7 MB
Extras/The Language of Shadows BDrip 1080p x265 DD 2.0 D0ct0rLew[SEV].mkv1.8 GB
Nosferatu 1922 BDrip 1080p x265 DTS-HD MA 5.1 D0ct0rLew[SEV].mkv11.1 GB

Alternative Torrents for 'Nosferatu COMPLETE Bluray DTSHD MA DctrLewSEV'.

TORRENT NAMEADDEDSIZESEEDSPEERSHEALTH
8/3/20201.2 GB28041872
11/8/20201.7 GB1154208
11/15/20202.5 GB969394
11/21/20202.1 GB79546
11/8/2020864 MB773118
11/21/20201.1 GB770131
11/7/20202.1 GB737332
11/21/20201.4 GB73078
10/9/20202.7 GB729497
11/21/20202.3 GB632101
11/21/2020680 MB62266
6/27/2020833 MB616100
11/7/20201 GB57533
3/10/20182.4 GB51288
8/21/20202 GB503138