Casuals The Story Of The Legendary Terrace Fashion 2011 WEBRip X264-ION10

Torrent Details

Casuals The Story Of The Legendary Terrace Fashion 2011 WEBRip x264<span style=color:#fc9c6d>-ION10</span>

NAME
Casuals The Story Of The Legendary Terrace Fashion 2011 WEBRip x264-ION10.torrent
CATEGORY
Movies
INFOHASH
33e0d9dfa1a71d69223119399bf2b4f06e504985
SIZE
710 MB in 3 files
ADDED
Uploaded on 26-07-2019 by our crawler pet called "Spidey".
SWARM
0 seeders & 0 peers
RATING
No votes yet.

Please login to vote for this torrent.


Description

Casuals.The.Story.Of.The.Legendary.Terrace.Fashion.2011.WEBRip.x264-ION10
https://www.imdb.com/title/tt2120743/

Poster:

Mediainfo:

Video:
Format : AVC
Duration : 1 h 12 min
Bit rate : 1 100 kb/s
Width : 720 pixels
Height : 400 pixels
Frame rate : 25.000 FPS
Stream size : 573 MiB (81%)

Audio:
Format : AAC LC
Duration : 1 h 12 min
Bit rate : 256 kb/s
Channel(s) : 2 channels
Stream size : 133 MiB (19%)
Language : English


Screenshots:



Discussion

Comments 0

Post Your Comment

Files in this torrent

FILENAMESIZE
Casuals.The.Story.Of.The.Legendary.Terrace.Fashion.2011.WEBRip.x264-ION10.mp4709.7 MB
RARBG.txt30 B
RARBG_DO_NOT_MIRROR.exe99 B

Alternative Torrents for 'Casuals Story Of Legendary Terrace Fashion'.

TORRENT NAMEADDEDSIZESEEDSPEERSHEALTH
2/1/20211.1 GB00
9/11/20191.4 GB00
7/26/2019710 MB00
7/6/20196.3 GB00
6/9/20164.4 GB00