Avengers Endgame (2019) 720p HDRip X264 [Dual-Audio][Hindi (Cleaned) - English] ESubs - Downloadhub

Torrent Details

Avengers Endgame (2019) 720p HDRip x264 [Dual-Audio][Hindi (Cleaned) - English] ESubs <span style=color:#fc9c6d>- Downloadhub</span>

NAME
Avengers Endgame (2019) 720p HDRip x264 [Dual-Audio][Hindi (Cleaned) - English] ESubs - Downloadhub.torrent
CATEGORY
Movies
INFOHASH
5bb329911fbf4593839e8449af2e9593f96725f2
SIZE
1.2 GB in 4 files
ADDED
Uploaded on 28-07-2019 by our crawler pet called "Spidey".
SWARM
0 seeders & 0 peers
RATING
No votes yet.

Please login to vote for this torrent.


Description









Format                                   : AVC

Format/Info                              : Advanced Video Codec

Format profile                           : [email protected]

Format settings                          : CABAC / 4 Ref Frames

Format settings, CABAC                   : Yes

Format settings, RefFrames               : 4 frames

Codec ID                                 : V_MPEG4/ISO/AVC

Duration                                 : 3 h 1 min

Bit rate                                 : 711 kb/s

Width                                    : 1 280 pixels

Height                                   : 536 pixels

Display aspect ratio                     : 2.40:1

Frame rate mode                          : Constant

Frame rate                               : 29.970 (30000/1001) FPS

Color space                              : YUV

Chroma subsampling                       : 4:2:0

Bit depth                                : 8 bits

Scan type                                : Progressive



Audio #1

ID                                       : 2

Format                                   : AAC

Format/Info                              : Advanced Audio Codec

Format profile                           : HE-AAC / LC

Format settings                          : Explicit

Codec ID                                 : A_AAC-2

Duration                                 : 3 h 1 min

Bit rate                                 : 128 kb/s

Channel(s)                               : 2 channels

Channel positions                        : Front: L R

Sampling rate                            : 44.1 kHz / 22.05 kHz

Frame rate                               : 21.533 FPS (1024 SPF)

Compression mode                         : Lossy

Delay relative to video                  : 5 ms

Stream size                              : 166 MiB (14%)

Language                                 : Hindi

Default                                  : Yes

Forced                                   : Yes



Audio #2

ID                                       : 3

Format                                   : AAC

Format/Info                              : Advanced Audio Codec

Format profile                           : HE-AAC / LC

Format settings                          : Explicit

Codec ID                                 : A_AAC-2

Duration                                 : 3 h 1 min

Bit rate                                 : 80.0 kb/s

Channel(s)                               : 2 channels

Channel positions                        : Front: L R

Sampling rate                            : 48.0 kHz / 24.0 kHz

Frame rate                               : 23.438 FPS (1024 SPF)

Compression mode                         : Lossy

Delay relative to video                  : 3 ms

Stream size                              : 104 MiB (9%)

Language                                 : English

Default                                  : No

Forced                                   : No



Text #1

ID                                       : 4

Format                                   : ASS

Codec ID                                 : S_TEXT/ASS

Codec ID/Info                            : Advanced Sub Station Alpha

Duration                                 : 1 h 24 min

Bit rate                                 : 0 b/s

Count of elements                        : 3

Compression mode                         : Lossless

Stream size                              : 249 Bytes (0%)

Default                                  : Yes

Forced                                   : No



Text #2

ID                                       : 5

Format                                   : UTF-8

Codec ID                                 : S_TEXT/UTF8

Codec ID/Info                            : UTF-8 Plain Text

Duration                                 : 3 h 0 min

Bit rate                                 : 52 b/s

Count of elements                        : 2643

Stream size                              : 69.0 KiB (0%)

Default                                  : No

Forced                                   : No













Discussion

Comments 0

Post Your Comment

Files in this torrent

FILENAMESIZE
Avengers Endgame 2019 Hindi Dual Audio www.downloadhub.lol 720p HDRip ESubs.mkv1.2 GB
dhub.lol.txt1.6 KB
Downloadhub.lol.txt1.7 KB
Torrent Seed By 1gbits.com.txt166 B

Alternative Torrents for 'Avengers Endgame DualAudioHindi Cleaned English ESubs'.

TORRENT NAMEADDEDSIZESEEDSPEERSHEALTH
9/12/202040 MB27491822
11/28/20202.5 GB483178
11/18/20201.3 GB37230
11/12/20201 GB37150
11/27/2020695 MB34934
11/9/20201.4 GB28414
10/22/20122.2 GB27978
11/28/20201.3 GB24789
10/24/20204 GB242248
11/24/20201.4 GB23125
11/12/20201.3 GB19912
6/27/20203.5 GB16134
11/28/20201.6 GB15932
11/28/20201.8 GB14024
12/1/20201.2 GB12047