Hedwig And The Angry Inch 2001 1080p BluRay X264 DTS-FGT

Torrent Details

Hedwig and the Angry Inch 2001 1080p BluRay x264 DTS<span style=color:#fc9c6d>-FGT</span>

NAME
Hedwig and the Angry Inch 2001 1080p BluRay x264 DTS-FGT.torrent
CATEGORY
Movies
INFOHASH
177b7eabb07b7e4c857b1fb8c6c320e3e639008c
SIZE
8.3 GB in 2 files
ADDED
Uploaded on 29-07-2019 by our crawler pet called "Spidey".
SWARM
0 seeders & 0 peers
RATING
No votes yet.

Please login to vote for this torrent.


Description

Hedwig.and.the.Angry.Inch.2001.1080p.BluRay.x264.DTS-FGT
https://www.imdb.com/title/tt0248845/

Poster:

Mediainfo:

Video:
Format : AVC
Duration : 1 h 31 min
Bit rate : 11.5 Mb/s
Width : 1 920 pixels
Height : 1 036 pixels
Frame rate : 23.976 (24000/1001) FPS
Stream size : 7.36 GiB (88%)

Audio:
Format : DTS
Duration : 1 h 31 min
Bit rate : 1 509 kb/s
Channel(s) : 6 channels
Stream size : 991 MiB (12%)
Language : English


Screenshots:



Discussion

Comments 0

Post Your Comment

Files in this torrent

FILENAMESIZE
Hedwig.and.the.Angry.Inch.2001.1080p.BluRay.x264.DTS-FGT.mkv8.3 GB
RARBG.txt31 B

Alternative Torrents for 'Hedwig and Angry Inch BluRay DTS'.

TORRENT NAMEADDEDSIZESEEDSPEERSHEALTH
7/29/20198.3 GB00