Hidden Firstborn 2019 Web-dlrip_[teko]

Torrent Details


Hidden Firstborn 2019 web-dlrip_[teko]

NAME
Hidden Firstborn 2019 web-dlrip_[teko].torrent
CATEGORY
Television
INFOHASH
a3d009029ac5467730cda264cf07946b05df0b2a
SIZE
5.2 GB in 8 files
ADDED
Uploaded on 03-08-2019 by our crawler pet called "Spidey".
SWARM
0 seeders & 0 peers
RATING
No votes yet.

Please login to vote for this torrent.


Description

Информация о фильме

Название: Скрытое

Оригинальное название: Hidden: Firstborn / Hidden: Förstfödd

Год выхода: 2019

Жанр: фэнтези, триллер

Режиссёр: Дэвид Беррон, Джонатан Сьоберг, Даниель ди Градо

В ролях: Аугуст Витгенштайн, Изабелла Скорупко, Андерс Мосслинг, Филипп Александерсон, Эрик Эриксон, Гизем Эрдоган, Лиза Линнерторп, Пиа Тьелта, Саймон Дж. Бергер



О фильме: Йонас учится на юридическом факультете, заботится о больной матери и подрабатывает на стройке. Стрессом и усталостью он объясняет свои приступы головной боли, даже не подозревая о том, как сильно он отличается от большинства людей. Невероятные открытия переворачивают его жизнь после несчастного случая. Йонас буквально возвращается с того света, чувствуя в себе новую силу и новые желания. Став мишенью таинственного преследования, он пускается в бега. Ему предстоит столкнуться с бывшим полицейским Вивикой Элдх, расследующей ритуальные убийства, и вместе с ней исследовать закоулки альтернативного Стокгольма.







Страна: Швеция

Студия: Yellow Bird Film & TV

Продолжительность: ~00:44:00 серия

Перевод: Профессиональный (многоголосый, закадровый) по заказу онлайн-сервиса ivi



Файл

Качество: WEB-DLRip

Формат: AVI

Видео: 704x352 at 25.000 fps, XviD, ~1999 kbps avg

Аудио: Russian: 48 kHz, AC3, 2/0 (L,R) ch, ~192 kbps |Многоголосый закадровый, по заказу онлайн-сервиса ivi|

Субтитры: None



***Примечание: Без рекламы

***Релиз: teko



MediaInfoGeneral

Complete name : s01e01.avi

Format : AVI

Format/Info : Audio Video Interleave

File size : 703 MiB

Duration : 44mn 33s

Overall bit rate : 2 204 Kbps

Writing application : VirtualDubMod 1.5.10.3 | www.virtualdub-fr.org || (build 2550/release)

Writing library : VirtualDubMod build 2550/release



Video

ID : 0

Format : MPEG-4 Visual

Format profile : Advanced [email protected]

Format settings, BVOP : 2

Format settings, QPel : No

Format settings, GMC : No warppoints

Format settings, Matrix : Custom

Codec ID : XVID

Codec ID/Hint : XviD

Duration : 44mn 33s

Bit rate : 2 002 Kbps

Width : 704 pixels

Height : 352 pixels

Display aspect ratio : 2.000

Frame rate : 25.000 fps

Color space : YUV

Chroma subsampling : 4:2:0

Bit depth : 8 bits

Scan type : Progressive

Compression mode : Lossy

Bits/(Pixel*Frame) : 0.323

Stream size : 638 MiB (91%)

Writing library : XviD 73



Audio

ID : 1

Format : AC-3

Format/Info : Audio Coding 3

Mode extension : CM (complete main)

Format settings, Endianness : Big

Codec ID : 2000

Duration : 44mn 33s

Bit rate mode : Constant

Bit rate : 192 Kbps

Channel(s) : 2 channels

Channel positions : Front: L R

Sampling rate : 48.0 KHz

Frame rate : 31.250 fps (1536 spf)

Compression mode : Lossy

Stream size : 61.2 MiB (9%)

Alignment : Split accross interleaves

Interleave, duration : 40 ms (1.00 video frame)

Interleave, preload duratio : 500 msСкриншоты

Discussion

Comments 0

Post Your Comment

Files in this torrent

FILENAMESIZE
Season_01/s01e01.avi702.5 MB
Season_01/s01e02.avi674.1 MB
Season_01/s01e03.avi617.1 MB
Season_01/s01e04.avi676.4 MB
Season_01/s01e05.avi635.9 MB
Season_01/s01e06.avi661 MB
Season_01/s01e07.avi648.4 MB
Season_01/s01e08.avi688.7 MB

Alternative Torrents for 'Hidden Firstborn dlripteko'.

There are no alternative torrents found.