007-20 Умри но не сейчас Die Another Day 2002 BDRip-HEVC 1080p

Torrent Details


007-20 Умри но не сейчас Die Another Day<span style=color:#777> 2002</span> BDRip-HEVC 1080p

NAME
007-20 Умри но не сейчас Die Another Day 2002 BDRip-HEVC 1080p.torrent
CATEGORY
Movies
INFOHASH
2becfb0a9b84112350a7c9e5438678c13f6467c9
SIZE
12.5 GB in 1 file
ADDED
Uploaded on 08-08-2019 by our crawler pet called "Spidey".
SWARM
0 seeders & 0 peers
RATING
No votes yet.

Please login to vote for this torrent.


Description

Название: Умри, но не сейчас

Оригинальное название: Die Another Day

Год выхода: 2002

Жанр: боевик, триллер, приключения

Режиссер: Ли Тамахори

В ролях: Пирс Броснан, Холли Берри, Тоби Стивенс, Розамунд Пайк, Рик Юн, Джуди Денч, Джон Клиз, Майкл Мэдсен, Уилл Юн Ли, Кеннет Цан



О фильме: На этот раз Джеймс Бонд в глубокой конспирации проводит операцию в Северной Корее. Однако его разоблачают, после чего Бонд оказывается за решеткой. Сумев выбраться из плена только через несколько месяцев 007 возвращается к своей привычной жизни, однако вскоре ему вновь приходится вступить в противоборство со своими корейскими «друзьями» — он узнает о плане британского миллиардера Густава Грейвса создать супероружие, и о его взаимодействии на этом поприще с корейскими военными…







Страна: Великобритания, США

Студия: Metro-Goldwyn-Mayer, 20th Century Fox

Продолжительность: 02:12:34

Перевод: Дублированный



Качество: BDRip-HEVC 1080p

Кодек: HEVC (x265)

Видео: 1920x804 (2.40:1), 12,2 Мбит/сек, 0.330 бит/(Пиксели*Кадры), 23.976 (24000/1001) кадр/сек, HEVC (Main10@L.4.1@High) 10 бит

Звук:

Аудио1: AC3, 6 ch, 640 Kbps - русский Дублированный

Аудио2: AC3, 6 ch, 640 Kbps - english Original

Субтитры: Русские полные (SRT), English full (SRT)

Навигация по главам: Есть



Mediainfox265 info: frame I: 807, Avg QP:18.12 kb/s: 23188.02

x265 info: frame P: 37091, Avg QP:19.45 kb/s: 17178.63

x265 info: frame B: 152817, Avg QP:21.38 kb/s: 10966.11

x265 info: Weighted P-Frames: Y:11.1% UV:8.7%

x265 info: Weighted B-Frames: Y:19.9% UV:12.5%

x265 info: consecutive B-frames: 7.3% 7.0% 7.6% 32.1% 11.1% 14.0% 4.7% 8.0% 2.6% 1.0% 0.9% 1.4% 0.6% 0.2% 0.3% 0.8% 0.3%

x265 info: encoded 190715 frames in 264875.08s (0.72 fps), 12226.06 kb/s, Avg QP:20.99



Формат : Matroska

Версия формата : Version 4

Размер файла : 12,5 Гбайт

Продолжительность : 2 ч. 12 м.

Общий поток : 13,5 Мбит/сек

Название фильма : Умри, но не сейчас

Описание : На этот раз Джеймс Бонд в глубокой конспирации проводит операцию в Северной Корее. Однако его разоблачают, после чего Бонд оказывается за решеткой.Сумев выбраться из плена только через несколько месяцев 007 возвращается к своей привычной жизни, однако вскоре ему вновь приходится вступить в противоборство со своими корейскими «друзьями» — он узнает о плане британского миллиардера Густава Грейвса создать супероружие, и о его взаимодействии на этом поприще с корейскими военными…

Дата кодирования : UTC 2019-08-08 13:23:25

Программа кодирования : mkvmerge v35.0.0 ('All The Love In The World') 64-bit

Библиотека кодирования : libebml v1.3.9 + libmatroska v1.5.2

Примечание : Rip by OldGamer

Attachments : poster.jpg / backdrop.jpg

ACTORS : Pierce Brosnan, Halle Berry, Rosamund Pike, Rick Yune, Toby Stephens, John Cleese, Lawrence Makoare, Michael Madsen, Will Yun Lee, Judi Dench, Kenneth Tsang, Emilio Echevarría, Mikhail Gorevoy, Colin Salmon, Samantha Bond, Madonna, Rachel Grant, Simón Andreu, Mark Dymond, Vincent Wong, Deborah Moore, Daryl Kwan, Joaquin Martinez, Paul Darrow

COMPOSER : David Arnold

COUNTRY : United Kingdom, United States

DATE : 2002-11-17

DIRECTOR : Lee Tamahori

ENCODING_INFO : MATROSKA,WEBM > MKV / H264 > X265 CRF 19.8 Very Slow / AC3 > COPY Безопасное / AC3 > COPY Безопасное

GENRE : приключения, боевик, триллер

HD_VIDEO : 1

ITUNEXTC : 12A

Язык : und

MEDIA_TYPE : 9

ORIGINAL_TITLE : Die Another Day

PRODUCER : Barbara Broccoli, Michael G. Wilson

PUBLISHER : Eon Productions

RATING : 5.90

WRITER : Robert Wade, Neal Purvis



Видео

Идентификатор : 1

Формат : HEVC

Формат/Информация : High Efficiency Video Coding

Профиль формата : Main 10@L4.1@High

Идентификатор кодека : V_MPEGH/ISO/HEVC

Продолжительность : 2 ч. 12 м.

Битрейт : 12,2 Мбит/сек

Ширина : 1920 пикселей

Высота : 804 пикселя

Соотношение сторон : 2,40:1

Режим частоты кадров : Постоянный

Частота кадров : 23,976 (24000/1001) кадра/сек

Цветовое пространство : YUV

Субдискретизация насыщенности : 4:2:0

Битовая глубина : 10 бит

Бит/(Пиксели*Кадры) : 0.330

Размер потока : 11,3 Гбайт (91%)

Заголовок : Die Another Day / Rip by OldGamer

Библиотека кодирования : x265 3.1+7-147fb92c5ed5:[Windows][clang 8.0.0][64 bit] 10bit

Настройки программы : cpuid=1111039 / frame-threads=14 / wpp / no-pmode / no-pme / no-psnr / no-ssim / log-level=3 / input-csp=1 / input-res=1920x804 / interlace=0 / total-frames=0 / level-idc=41 / high-tier=1 / uhd-bd=0 / ref=5 / allow-non-conformance / no-repeat-headers / annexb / no-aud / no-hrd / info / hash=0 / no-temporal-layers / open-gop / min-keyint=23 / keyint=240 / gop-lookahead=0 / bframes=16 / b-adapt=2 / b-pyramid / bframe-bias=0 / rc-lookahead=60 / lookahead-slices=5 / scenecut=40 / radl=0 / no-splice / no-intra-refresh / ctu=64 / min-cu-size=8 / rect / amp / max-tu-size=32 / tu-inter-depth=4 / tu-intra-depth=4 / limit-tu=1 / rdoq-level=2 / dynamic-rd=0.00 / no-ssim-rd / signhide / no-tskip / nr-intra=0 / nr-inter=0 / no-constrained-intra / no-strong-intra-smoothing / max-merge=5 / limit-refs=2 / no-limit-modes / me=3 / subme=7 / merange=57 / temporal-mvp / no-hme / weightp / weightb / no-analyze-src-pics / deblock=-3:-3 / no-sao / no-sao-non-deblock / rd=6 / early-skip / rskip / no-fast-intra / no-tskip-fast / no-cu-lossless / b-intra / no-splitrd-skip / rdpenalty=0 / psy-rd=2.00 / psy-rdoq=1.00 / no-rd-refine / no-lossless / cbqpoffs=0 / crqpoffs=0 / rc=crf / crf=19.8 / qcomp=0.75 / qpstep=4 / stats-write=0 / stats-read=0 / vbv-maxrate=50000 / vbv-bufsize=50000 / vbv-init=0.9 / crf-max=0.0 / crf-min=0.0 / ipratio=1.40 / pbratio=1.30 / aq-mode=2 / aq-strength=0.80 / no-cutree / zone-count=0 / no-strict-cbr / qg-size=32 / no-rc-grain / qpmax=69 / qpmin=0 / no-const-vbv / sar=1 / overscan=0 / videoformat=5 / range=0 / colorprim=1 / transfer=1 / colormatrix=1 / chromaloc=0 / display-window=0cll=0,0 / min-luma=0 / max-luma=1023 / log2-max-poc-lsb=8 / vui-timing-info / vui-hrd-info / slices=1 / no-opt-qp-pps / no-opt-ref-list-length-pps / no-multi-pass-opt-rps / scenecut-bias=0.00 / no-opt-cu-delta-qp / aq-motion / no-hdr / no-hdr-opt / no-dhdr10-opt / no-idr-recovery-sei / analysis-reuse-level=5 / scale-factor=0 / refine-intra=0 / refine-inter=0 / refine-mv=0 / refine-ctu-distortion=0 / no-limit-sao / ctu-info=0 / no-lowpass-dct / refine-analysis-type=32000 / copy-pic=1 / max-ausize-factor=1.0 / no-dynamic-refine / no-single-sei / no-hevc-aq / no-svt / no-field / qp-adaptation-range=1.00

Язык : English

Default : Да

Forced : Нет

Цветовой диапазон : Limited

Основные цвета : BT.709

Характеристики трансфера : BT.709

Коэффициенты матрицы : BT.709



Аудио #1

Идентификатор : 2

Формат : AC-3

Формат/Информация : Audio Coding 3

Коммерческое название : Dolby Digital

Идентификатор кодека : A_AC3

Продолжительность : 2 ч. 12 м.

Вид битрейта : Постоянный

Битрейт : 640 Кбит/сек

Каналы : 6 каналов

Channel layout : L R C LFE Ls Rs

Частота : 48,0 КГц

Частота кадров : 31,250 кадров/сек (1536 SPF)

Битовая глубина : 16 бит

Метод сжатия : С потерями

Размер потока : 607 Мбайт (5%)

Заголовок : Dub

Язык : Russian

ServiceKind/ : Complete Main

Default : Да

Forced : Нет



Аудио #2

Идентификатор : 3

Формат : AC-3

Формат/Информация : Audio Coding 3

Коммерческое название : Dolby Digital

Идентификатор кодека : A_AC3

Продолжительность : 2 ч. 12 м.

Вид битрейта : Постоянный

Битрейт : 640 Кбит/сек

Каналы : 6 каналов

Channel layout : L R C LFE Ls Rs

Частота : 48,0 КГц

Частота кадров : 31,250 кадров/сек (1536 SPF)

Битовая глубина : 16 бит

Метод сжатия : С потерями

Размер потока : 607 Мбайт (5%)

Язык : English

ServiceKind/ : Complete Main

Default : Нет

Forced : Нет



Текст #1

Идентификатор : 4

Формат : UTF-8

Идентификатор кодека : S_TEXT/UTF8

Идентификатор кодека/Информация : UTF-8 Plain Text

Продолжительность : 2 ч. 8 м.

Битрейт : 56 бит/сек

ElementCount : 847

Размер потока : 53,3 Кбайт (0%)

Язык : Russian

Default : Нет

Forced : Нет



Текст #2

Идентификатор : 5

Формат : UTF-8

Идентификатор кодека : S_TEXT/UTF8

Идентификатор кодека/Информация : UTF-8 Plain Text

Продолжительность : 2 ч. 9 м.

Битрейт : 32 бит/сек

ElementCount : 974

Размер потока : 30,4 Кбайт (0%)

Заголовок : v1

Язык : English

Default : Нет

Forced : Нет



Текст #3

Идентификатор : 6

Формат : UTF-8

Идентификатор кодека : S_TEXT/UTF8

Идентификатор кодека/Информация : UTF-8 Plain Text

Продолжительность : 2 ч. 5 м.

Битрейт : 31 бит/сек

ElementCount : 846

Размер потока : 28,7 Кбайт (0%)

Заголовок : v2

Язык : English

Default : Нет

Forced : Нет



Меню

00:00:00.000 : :Chapter 01

00:09:28.150 : :Chapter 02

00:13:15.961 : :Chapter 03

00:16:40.833 : :Chapter 04

00:22:19.796 : :Chapter 05

00:27:32.400 : :Chapter 06

00:30:59.607 : :Chapter 07

00:34:35.823 : :Chapter 08

00:39:46.842 : :Chapter 09

00:43:35.821 : :Chapter 10

00:48:40.918 : :Chapter 11

00:50:01.581 : :Chapter 12

00:52:21.888 : :Chapter 13

00:59:20.640 : :Chapter 14

01:00:13.276 : :Chapter 15

01:03:00.234 : :Chapter 16

01:08:23.432 : :Chapter 17

01:11:07.554 : :Chapter 18

01:13:52.219 : :Chapter 19

01:19:23.717 : :Chapter 20

01:21:33.305 : :Chapter 21

01:26:55.710 : :Chapter 22

01:31:25.771 : :Chapter 23

01:35:07.618 : :Chapter 24

01:39:53.570 : :Chapter 25

01:44:56.248 : :Chapter 26

01:49:43.118 : :Chapter 27

01:55:49.150 : :Chapter 28

02:01:52.388 : :Chapter 29

02:05:08.083 : :Chapter 30

02:06:58.694 : :Chapter 31

02:08:26.699 : :Chapter 32Скриншоты





Автор: OldGamer

Discussion

Comments 0

Post Your Comment

Files in this torrent

FILENAMESIZE
007-20.Умри.но.не.сейчас.Die.Another.Day.2002.BDRip-HEVC.1080p.mkv12.5 GB

Alternative Torrents for 'Умри но не сейчас Die Another Day'.

There are no alternative torrents found.