Behold My Heart 2018 BDRip 1080p

Torrent Details


Behold My Heart 2018 BDRip 1080p

NAME
Behold My Heart 2018 BDRip 1080p.torrent
CATEGORY
Movies
INFOHASH
78d4da9269e603fdfdd500066467a400be056a46
SIZE
9.4 GB in 1 file
ADDED
Uploaded on 09-08-2019 by our crawler pet called "Spidey".
SWARM
0 seeders & 0 peers
RATING
No votes yet.

Please login to vote for this torrent.


Description

Информация о фильме

Название: Вот моё сердце

Оригинальное название: Behold My Heart / Dark was the Night

Год выхода: 2018

Жанр: Драма

Режиссер: Джошуа Леонард

В ролях: Мариса Томей, Тимоти Олифант, Чарли Пламмер, Мирей Инос, Эмили Робинсон, Ник Додани, Сакина Джаффри, Дэвид Колл, Сайда Аррика Экулона, Блесст Боуден



О фильме:

Мать и её сын-подросток переживают тяжёлый период после страшной трагедии, обрушившейся на них внезапно. Им приходится начинать жизнь с нуля и выйти за рамки привычного.











Страна: США

Студия: Autumn Productions, Bella Vida Productions, Perception Media

Продолжительность: 01:20:49

Перевод: Любительский (двухголосый закадровый) | HiWay Grope



Файл

Кодек: MPEG-4 AVC

Качество: BDRip 1080p

Видео: 1920х1036, 15.0 Mбит/с, 23.976 fps

Звук:

Аудио 1: Russian: 48 kHz, AC3, 2 ch, 192 kbps - HiWayGrope

Аудио 2: English: 48 kHz, DTS, 6 ch, 1509 kbps

Субтитры: Английские

Реклама: Нет





MediaInfo:

General

Unique ID : 114736353187919935274892641373603303395 (0x56516AF70054244615FE7DFF83D90FE3)

Complete name : G:Behold.My.Heart.2018.BDRip.1080p.mkv

Format : Matroska

Format version : Version 4 / Version 2

File size : 9.41 GiB

Duration : 1 h 20 min

Overall bit rate : 16.7 Mb/s

Encoded date : UTC 2019-08-02 12:44:48

Writing application : mkvmerge v20.0.0 ('I Am The Sun') 64-bit

Writing library : libebml v1.3.5 + libmatroska v1.4.8



Video

ID : 1

Format : AVC

Format/Info : Advanced Video Codec

Format profile : [email protected]

Format settings : CABAC / 4 Ref Frames

Format settings, CABAC : Yes

Format settings, RefFrames : 4 frames

Codec ID : V_MPEG4/ISO/AVC

Duration : 1 h 20 min

Bit rate : 15.0 Mb/s

Width : 1 920 pixels

Height : 1 036 pixels

Display aspect ratio : 1.85:1

Frame rate mode : Constant

Frame rate : 23.976 (24000/1001) FPS

Color space : YUV

Chroma subsampling : 4:2:0

Bit depth : 8 bits

Scan type : Progressive

Bits/(Pixel*Frame) : 0.314

Stream size : 8.45 GiB (90%)

Language : English

Default : Yes

Forced : No



Audio #1

ID : 2

Format : AC-3

Format/Info : Audio Coding 3

Codec ID : A_AC3

Duration : 1 h 20 min

Bit rate mode : Constant

Bit rate : 192 kb/s

Channel(s) : 2 channels

Channel positions : Front: L R

Sampling rate : 48.0 kHz

Frame rate : 31.250 FPS (1536 SPF)

Bit depth : 16 bits

Compression mode : Lossy

Stream size : 111 MiB (1%)

Title : DVO HiWayGrope

Language : Russian

Service kind : Complete Main

Default : Yes

Forced : No



Audio #2

ID : 3

Format : DTS

Format/Info : Digital Theater Systems

Codec ID : A_DTS

Duration : 1 h 20 min

Bit rate mode : Constant

Bit rate : 1 509 kb/s

Channel(s) : 6 channels

Channel positions : Front: L C R, Side: L R, LFE

Sampling rate : 48.0 kHz

Frame rate : 93.750 FPS (512 SPF)

Bit depth : 24 bits

Compression mode : Lossy

Stream size : 872 MiB (9%)

Language : English

Default : No

Forced : No



Text

ID : 4

Format : UTF-8

Codec ID : S_TEXT/UTF8

Codec ID/Info : UTF-8 Plain Text

Duration : 1 h 19 min

Bit rate : 44 b/s

Count of elements : 945

Stream size : 26.2 KiB (0%)

Language : English

Default : No

Forced : No







Скриншоты



Релиз от: mike7025

Discussion

Comments 0

Post Your Comment

Files in this torrent

FILENAMESIZE
Behold.My.Heart.2018.BDRip.1080p.mkv9.4 GB

Alternative Torrents for 'Behold My Heart'.

TORRENT NAMEADDEDSIZESEEDSPEERSHEALTH
8/9/20199.4 GB00