007-06 На секретной службе её Величества On Her Majesty's Secret Service 1969 BDRip-HEVC 1080p

Torrent Details


007-06 На секретной службе её Величества On Her Majesty's Secret Service 1969 BDRip-HEVC 1080p

NAME
007-06 На секретной службе её Величества On Her Majesty's Secret Service 1969 BDRip-HEVC 1080p.torrent
CATEGORY
Movies
INFOHASH
2cc45e98613c1804a19dc0474e65743c41b7229e
SIZE
11.3 GB in 0 files
ADDED
Uploaded on 14-08-2019 by our crawler pet called "Spidey".
SWARM
0 seeders & 0 peers
RATING
No votes yet.

Please login to vote for this torrent.


Description

Название: На секретной службе ее Величества

Оригинальное название: On Her Majesty's Secret Service

Год выхода: 1969

Жанр: боевик, триллер, приключения

Режиссер: Питер Р. Хант

В ролях: Джордж Лэзенби, Дайана Ригг, Телли Савалас, Габриэле Ферцетти, Ильзе Штеппат, Лоис Максуэлл, Джордж Бейкер, Бернард Ли, Бернард Хорсфолл, Десмонд Ллевелин



О фильме: Идя по следу своего старого врага Блюфельда, Бонд оказывается в Португалии, где он безумно влюбляется в необыкновенно красивую девушку, которая ко всему прочему является дочерью короля преступного мира. Используя связи своего потенциального свекра, он обнаруживает секретную лабораторию, замаскированную под частную клинику, где Блюфельд разрабатывает новый смертоносный вирус. Возлюбленная Бонда попадает в лапы к негодяю и теперь одним махом Бонд может спасти человечество от вымирания, доказать девушке серьезность своих отношений, свести счеты с Блюфельдом.







Страна: Великобритания

Студия: United Artists

Продолжительность: 02:22:18

Перевод: Дублированный



Качество: BDRip-HEVC 1080p

Кодек: HEVC (x265)

Видео: 1920x816 (2,35:1), 10,0 Мбит/сек, 0.267 бит/(Пиксели*Кадры), 23.976 (24000/1001) кадр/сек, HEVC ([email protected]@High) 10 бит

Звук:

Аудио1: AC3, 6 ch, 640 Kbps - русский Дублированный

Аудио2: AC3, 6 ch, 640 Kbps - english Original

Субтитры: Русские полные (SRT), English full (SRT)

Навигация по главам: Есть



Mediainfox265 info: frame I: 858, Avg QP:17.98 kb/s: 24230.49

x265 info: frame P: 38962, Avg QP:19.29 kb/s: 17307.76

x265 info: frame B: 164900, Avg QP:21.30 kb/s: 8246.83

x265 info: Weighted P-Frames: Y:7.4% UV:5.5%

x265 info: Weighted B-Frames: Y:5.1% UV:3.5%

x265 info: consecutive B-frames: 3.8% 5.6% 8.5% 21.7% 12.9% 30.3% 6.4% 6.4% 1.8% 1.4% 0.7% 0.4% 0.1% 0.0% 0.0%

x265 info: encoded 204720 frames in 255266.21s (0.80 fps), 10038.28 kb/s, Avg QP:20.90



Формат : Matroska

Версия формата : Version 4

Размер файла : 11,3 Гбайт

Продолжительность : 2 ч. 22 м.

Общий поток : 11,3 Мбит/сек

Название фильма : На секретной службе её Величества

Описание : Идя по следу своего старого врага Блюфельда, Бонд оказывается в Португалии, где он безумно влюбляется в необыкновенно красивую девушку, которая ко всему прочему является дочерью короля преступного мира. Используя связи своего потенциального свекра, он обнаруживает секретную лабораторию, замаскированную под частную клинику, где Блюфельд разрабатывает новый смертоносный вирус. Возлюбленная Бонда попадает в лапы к негодяю и теперь одним махом Бонд может спасти человечество от вымирания, доказать девушке серьезность своих отношений, свести счеты с Блюфельдом.

Дата кодирования : UTC 2019-08-14 15:05:14

Программа кодирования : mkvmerge v36.0.0 ('Is That Jazz?') 64-bit

Библиотека кодирования : libebml v1.3.9 + libmatroska v1.5.2 / Lavf57.71.100

Примечание : Rip by OldGamer

Attachments : poster.jpg / backdrop.jpg

ACTORS : George Lazenby, Diana Rigg, Telly Savalas, Gabriele Ferzetti, Ilse Steppat, Angela Scoular, Lois Maxwell, George Baker, Bernard Lee, Desmond Llewelyn, Catherine Schell, Bernard Horsfall, Virginia North, Geoffrey Cheshire, Julie Ege, Mona Chong, Joanna Lumley, Jenny Hanley, Sally Sheridan, Zaheera, Anouska Hempel, Ingrid Back, Helena Ronee, Irvin Allen

COUNTRY : United Kingdom, United States

DATE : 1969-12-12

DIRECTOR : Peter R. Hunt

ENCODING_INFO : MATROSKA,WEBM > MKV / H264 > X265 CRF 19.1 Very Slow / AC3 > COPY Безопасное / AC3 > COPY Безопасное

GENRE : Приключения, Боевик, Триллер

HD_VIDEO : 1

ITUNEXTC : mpaa|PG|200|

Язык : und

MEDIA_TYPE : 9

ORIGINAL_TITLE : On Her Majesty's Secret Service

PRODUCER : Albert R. Broccoli, Harry Saltzman, Stanley Sopel

PUBLISHER : United Artists, Eon Productions, Danjaq

RATING : 6.50

WRITER : Richard Maibaum



Видео

Идентификатор : 1

Формат : HEVC

Формат/Информация : High Efficiency Video Coding

Профиль формата : Main [email protected]@High

Идентификатор кодека : V_MPEGH/ISO/HEVC

Продолжительность : 2 ч. 22 м.

Битрейт : 10,0 Мбит/сек

Ширина : 1920 пикселей

Высота : 816 пикселей

Соотношение сторон : 2,35:1

Режим частоты кадров : Постоянный

Частота кадров : 23,976 (24000/1001) кадра/сек

Цветовое пространство : YUV

Субдискретизация насыщенности : 4:2:0

Битовая глубина : 10 бит

Бит/(Пиксели*Кадры) : 0.267

Размер потока : 9,98 Гбайт (89%)

Заголовок : On Her Majesty's Secret Service / Rip by OldGamer

Библиотека кодирования : x265 2.9+9-f74003e88622:[Mac OS X][clang 10.0.0][64 bit] 10bit

Настройки программы : cpuid=1111039 / frame-threads=14 / wpp / no-pmode / no-pme / no-psnr / no-ssim / log-level=3 / input-csp=1 / input-res=1920x816 / interlace=0 / total-frames=0 / level-idc=41 / high-tier=1 / uhd-bd=0 / ref=5 / allow-non-conformance / no-repeat-headers / annexb / no-aud / no-hrd / info / hash=0 / no-temporal-layers / open-gop / min-keyint=23 / keyint=240 / gop-lookahead=0 / bframes=14 / b-adapt=2 / b-pyramid / bframe-bias=0 / rc-lookahead=80 / lookahead-slices=5 / scenecut=40 / radl=0 / no-intra-refresh / ctu=64 / min-cu-size=8 / rect / amp / max-tu-size=32 / tu-inter-depth=4 / tu-intra-depth=4 / limit-tu=1 / rdoq-level=2 / dynamic-rd=0.00 / no-ssim-rd / signhide / no-tskip / nr-intra=0 / nr-inter=0 / no-constrained-intra / no-strong-intra-smoothing / max-merge=5 / limit-refs=2 / no-limit-modes / me=3 / subme=7 / merange=57 / temporal-mvp / weightp / weightb / no-analyze-src-pics / deblock=-3:-3 / no-sao / no-sao-non-deblock / rd=6 / no-early-skip / rskip / no-fast-intra / no-tskip-fast / no-cu-lossless / no-b-intra / no-splitrd-skip / rdpenalty=0 / psy-rd=2.00 / psy-rdoq=1.00 / no-rd-refine / no-lossless / cbqpoffs=0 / crqpoffs=0 / rc=crf / crf=19.1 / qcomp=0.70 / qpstep=4 / stats-write=0 / stats-read=0 / vbv-maxrate=50000 / vbv-bufsize=50000 / vbv-init=0.9 / crf-max=0.0 / crf-min=0.0 / ipratio=1.40 / pbratio=1.30 / aq-mode=2 / aq-strength=0.80 / no-cutree / zone-count=0 / no-strict-cbr / qg-size=32 / no-rc-grain / qpmax=69 / qpmin=0 / no-const-vbv / sar=1 / overscan=0 / videoformat=5 / range=0 / colorprim=2 / transfer=2 / colormatrix=2 / chromaloc=0 / display-window=0 / max-cll=0,0 / min-luma=0 / max-luma=1023 / log2-max-poc-lsb=8 / vui-timing-info / vui-hrd-info / slices=1 / no-opt-qp-pps / no-opt-ref-list-length-pps / no-multi-pass-opt-rps / scenecut-bias=0.00 / no-opt-cu-delta-qp / aq-motion / no-hdr / no-hdr-opt / no-dhdr10-opt / no-idr-recovery-sei / analysis-reuse-level=5 / scale-factor=0 / refine-intra=0 / refine-inter=0 / refine-mv=0 / no-limit-sao / ctu-info=0 / no-lowpass-dct / refine-mv-type=0 / copy-pic=1 / max-ausize-factor=1.0 / no-dynamic-refine / no-single-sei

Язык : English

Default : Да

Forced : Нет

Цветовой диапазон : Limited



Аудио #1

Идентификатор : 2

Формат : AC-3

Формат/Информация : Audio Coding 3

Коммерческое название : Dolby Digital

Идентификатор кодека : A_AC3

Продолжительность : 2 ч. 22 м.

Вид битрейта : Постоянный

Битрейт : 640 Кбит/сек

Каналы : 6 каналов

Channel layout : L R C LFE Ls Rs

Частота : 48,0 КГц

Частота кадров : 31,250 кадров/сек (1536 SPF)

Битовая глубина : 16 бит

Метод сжатия : С потерями

Размер потока : 651 Мбайт (6%)

Заголовок : Dub

Язык : Russian

ServiceKind/ : Complete Main

Default : Да

Forced : Нет



Аудио #2

Идентификатор : 3

Формат : AC-3

Формат/Информация : Audio Coding 3

Коммерческое название : Dolby Digital

Идентификатор кодека : A_AC3

Продолжительность : 2 ч. 22 м.

Вид битрейта : Постоянный

Битрейт : 640 Кбит/сек

Каналы : 6 каналов

Channel layout : L R C LFE Ls Rs

Частота : 48,0 КГц

Частота кадров : 31,250 кадров/сек (1536 SPF)

Битовая глубина : 16 бит

Метод сжатия : С потерями

Размер потока : 651 Мбайт (6%)

Язык : English

ServiceKind/ : Complete Main

Default : Нет

Forced : Нет



Текст #1

Идентификатор : 4

Формат : UTF-8

Идентификатор кодека : S_TEXT/UTF8

Идентификатор кодека/Информация : UTF-8 Plain Text

Продолжительность : 2 ч. 21 м.

Битрейт : 66 бит/сек

ElementCount : 1066

Размер потока : 69,2 Кбайт (0%)

Язык : Russian

Default : Нет

Forced : Нет



Текст #2

Идентификатор : 5

Формат : UTF-8

Идентификатор кодека : S_TEXT/UTF8

Идентификатор кодека/Информация : UTF-8 Plain Text

Продолжительность : 2 ч. 19 м.

Битрейт : 44 бит/сек

ElementCount : 1353

Размер потока : 45,9 Кбайт (0%)

Язык : English

Default : Нет

Forced : Нет



Текст #3

Идентификатор : 6

Формат : UTF-8

Идентификатор кодека : S_TEXT/UTF8

Идентификатор кодека/Информация : UTF-8 Plain Text

Продолжительность : 2 ч. 19 м.

Битрейт : 46 бит/сек

ElementCount : 1188

Размер потока : 47,2 Кбайт (0%)

Язык : English

Default : Нет

Forced : Нет



Меню

00:00:00.000 : :Chapter 01

00:01:28.254 : :Chapter 02

00:06:56.833 : :Chapter 03

00:09:28.442 : :Chapter 04

00:14:07.304 : :Chapter 05

00:15:43.442 : :Chapter 06

00:19:43.932 : :Chapter 07

00:26:47.105 : :Chapter 08

00:30:36.251 : :Chapter 09

00:34:59.013 : :Chapter 10

00:37:13.314 : :Chapter 11

00:43:52.129 : :Chapter 12

00:47:43.026 : :Chapter 13

00:54:49.869 : :Chapter 14

00:57:09.217 : :Chapter 15

01:02:37.253 : :Chapter 16

01:06:04.669 : :Chapter 17

01:13:21.063 : :Chapter 18

01:18:08.058 : :Chapter 19

01:22:19.184 : :Chapter 20

01:29:14.932 : :Chapter 21

01:31:36.282 : :Chapter 22

01:38:32.197 : :Chapter 23

01:44:17.668 : :Chapter 24

01:48:26.625 : :Chapter 25

01:53:53.034 : :Chapter 26

01:58:39.320 : :Chapter 27

02:00:46.906 : :Chapter 28

02:05:41.867 : :Chapter 29

02:09:09.908 : :Chapter 30

02:11:52.404 : :Chapter 31

02:15:41.758 : :Chapter 32Скриншоты





Автор: OldGamer

Discussion

Comments 0

Post Your Comment

Torrent Files (Unavailable)

Please check back later to get a list of all files included in this torrent.

Alternative Torrents for 'На секретной службе её Величества Her Majesty&;s Secret Service HEVC'.

TORRENT NAMEADDEDSIZESEEDSPEERSHEALTH
8/14/201911.3 GB00