Класс 1999 - Class Of 1999 (1990) BDRip-AVC

Torrent Details


Класс 1999 - Class of 1999 (1990) BDRip-AVC

NAME
Класс 1999 - Class of 1999 (1990) BDRip-AVC.torrent
CATEGORY
Movies
INFOHASH
da943ebda0c5b612e0806564b84da986482dbf78
SIZE
4.2 GB in 0 files
ADDED
Uploaded on 20-08-2019 by our crawler pet called "Spidey".
SWARM
0 seeders & 0 peers
RATING
No votes yet.

Please login to vote for this torrent.


Description

Информация о фильме

Название: Класс 1999

Оригинальное название: Class of 1999

Год выхода: 1990

Жанр: ужасы, фантастика, боевик

Режиссер: Марк Л. Лестер

В ролях: Брэдли Грегг, Трейси Линд, Малкольм МакДауэлл, Стейси Кич, Патрик Килпатрик, Пэм Гриер, Джон П. Райан, Даррен Э. Берроуз, Джошуа Джон Миллер, Шэрон Уайатт



О фильме:

Время действия — 1999 год. В школах и вузах США — полный беспредел, творимый молодежными бандами. Департамент Обороны Образования, отчаявшись навести дисциплину в Высшей школе Кеннеди решает воспользоваться услугами фирмы «Мегатек», работавшей на оборону и продолжающей вести разработку различных моделей роботов, в том числе учителей-киборгов.



Три электронных учителя, прибывшие в школу, моментально звереют от общения со своими студентами и начинают безжалостное смертельное сражение «за успеваемость и посещаемость». На этот раз юные бандиты находят себе равных противников!







Страна: США

Студия: Lightning Pictures, Original Pictures, Vestron Pictures

Продолжительность: 01:36:13

Перевод: Профессиональный (двухголосый, закадровый) CP Digital, авторский (одноголосый, закадровый) М.Яроцкий (kyberpunk)



Файл

Кодек: x264

Качество: BDRip-AVC [Class of 1999.1990.US.BDRemux]

Видео: 1112x600 (1.85:1), 23.976fps, MPEG-4 AVC, 5 607 kb/s, 0.351 bit/pixel

Звук:

Audio 1: Dolby AC3 48000Hz stereo 192kbps [A: DVO - CP Digital [rus] (ac3, 48000 Hz, stereo, 192 kb/s)]

Audio 2: Dolby AC3 48000Hz stereo 192kbps [A: AVO - М.Яроцкий (kyberpunk) [rus] (ac3, 48000 Hz, stereo, 192 kb/s)]

Audio 3: Dolby AC3 48000Hz stereo 192kbps [A: Original [eng] (ac3, 48000 Hz, stereo, 192 kb/s)]

Субтитры: Русские, английские



ЦитатаКто-то писал:
Перевод М.Яроцкого доступен благодаря: romic2110, dikii, Ananerbe, garik123, Pr0peLLer, kidman644, sa1992, other_code, karbofosb. Работа со звуком Переводман

MediaInfoGeneral

Unique ID : 53054627976296739878396608932661742711 (0x27E9F31D9FEE22E6FD3DFA303AE4CC77)

Complete name : Класс 1999 - Class of 1999 (1990) BDRip-AVC.mkv

Format : Matroska

Format version : Version 4 / Version 2

File size : 4.16 GiB

Duration : 1 h 36 min

Overall bit rate : 6 183 kb/s

Movie name : Class of 1999 (1990)

Encoded date : UTC 2019-08-18 13:44:27

Writing application : mkvmerge v36.0.0 ('Is That Jazz?') 64-bit

Writing library : libebml v1.3.9 + libmatroska v1.5.2



Video

ID : 1

Format : AVC

Format/Info : Advanced Video Codec

Format profile : [email protected]

Format settings, CABAC : Yes

Format settings, RefFrames : 9 frames

Codec ID : V_MPEG4/ISO/AVC

Duration : 1 h 36 min

Bit rate : 5 607 kb/s

Width : 1 112 pixels

Height : 600 pixels

Display aspect ratio : 1.85:1

Frame rate mode : Constant

Frame rate : 23.976 (24000/1001) FPS

Color space : YUV

Chroma subsampling : 4:2:0

Bit depth : 8 bits

Scan type : Progressive

Bits/(Pixel*Frame) : 0.351

Stream size : 3.77 GiB (91%)

Writing library : x264 core 157 r2969 d4099dd

Encoding settings : cabac=1 / ref=9 / deblock=1:-3:-3 / analyse=0x3:0x113 / me=umh / subme=11 / psy=1 / psy_rd=1.00:0.00 / mixed_ref=1 / me_range=32 / chroma_me=1 / trellis=2 / 8x8dct=1 / cqm=0 / deadzone=21,11 / fast_pskip=1 / chroma_qp_offset=-4 / threads=6 / lookahead_threads=1 / sliced_threads=0 / nr=0 / decimate=1 / interlaced=0 / bluray_compat=0 / constrained_intra=0 / bframes=8 / b_pyramid=2 / b_adapt=2 / b_bias=0 / direct=1 / weightb=1 / open_gop=0 / weightp=2 / keyint=240 / keyint_min=23 / scenecut=40 / intra_refresh=0 / rc_lookahead=60 / rc=2pass / mbtree=1 / bitrate=5607 / ratetol=1.0 / qcomp=0.60 / qpmin=10 / qpmax=69 / qpstep=4 / cplxblur=20.0 / qblur=0.5 / vbv_maxrate=50000 / vbv_bufsize=62500 / nal_hrd=none / filler=0 / ip_ratio=1.40 / aq=1:0.90

Language : English

Default : Yes

Forced : No



Audio #1

ID : 2

Format : AC-3

Format/Info : Audio Coding 3

Format settings, Endianness : Big

Codec ID : A_AC3

Duration : 1 h 36 min

Bit rate mode : Constant

Bit rate : 192 kb/s

Channel(s) : 2 channels

Channel positions : Front: L R

Sampling rate : 48.0 kHz

Frame rate : 31.250 FPS (1536 SPF)

Bit depth : 16 bits

Compression mode : Lossy

Stream size : 132 MiB (3%)

Title : DVO - CP Digital

Language : Russian

Service kind : Complete Main

Default : Yes

Forced : No



Audio #2

ID : 3

Format : AC-3

Format/Info : Audio Coding 3

Format settings, Endianness : Big

Codec ID : A_AC3

Duration : 1 h 36 min

Bit rate mode : Constant

Bit rate : 192 kb/s

Channel(s) : 2 channels

Channel positions : Front: L R

Sampling rate : 48.0 kHz

Frame rate : 31.250 FPS (1536 SPF)

Bit depth : 16 bits

Compression mode : Lossy

Stream size : 132 MiB (3%)

Title : AVO - М.Яроцкий (kyberpunk)

Language : Russian

Service kind : Complete Main

Default : No

Forced : No



Audio #3

ID : 4

Format : AC-3

Format/Info : Audio Coding 3

Format settings, Endianness : Big

Codec ID : A_AC3

Duration : 1 h 36 min

Bit rate mode : Constant

Bit rate : 192 kb/s

Channel(s) : 2 channels

Channel positions : Front: L R

Sampling rate : 48.0 kHz

Frame rate : 31.250 FPS (1536 SPF)

Bit depth : 16 bits

Compression mode : Lossy

Stream size : 132 MiB (3%)

Title : Original

Language : English

Service kind : Complete Main

Default : No

Forced : No



Text #1

ID : 5

Format : UTF-8

Codec ID : S_TEXT/UTF8

Codec ID/Info : UTF-8 Plain Text

Duration : 1 h 29 min

Bit rate : 75 b/s

Count of elements : 559

Stream size : 49.3 KiB (0%)

Title : Full

Language : Russian

Default : No

Forced : No



Text #2

ID : 6

Format : UTF-8

Codec ID : S_TEXT/UTF8

Codec ID/Info : UTF-8 Plain Text

Duration : 1 h 34 min

Bit rate : 46 b/s

Count of elements : 1088

Stream size : 32.2 KiB (0%)

Title : Full

Language : English

Default : No

Forced : No



Text #3

ID : 7

Format : UTF-8

Codec ID : S_TEXT/UTF8

Codec ID/Info : UTF-8 Plain Text

Duration : 1 h 35 min

Bit rate : 55 b/s

Count of elements : 1443

Stream size : 39.1 KiB (0%)

Title : SDH

Language : English

Default : No

Forced : No



Menu

00:00:00.000 : en:Chapter 1

00:10:02.059 : en:Chapter 2

00:15:00.399 : en:Chapter 3

00:25:35.075 : en:Chapter 4

00:31:54.120 : en:Chapter 5

00:39:31.911 : en:Chapter 6

00:49:29.007 : en:Chapter 7

00:56:26.341 : en:Chapter 8

01:04:49.760 : en:Chapter 9

01:12:37.853 : en:Chapter 10

01:20:22.317 : en:Chapter 11

01:31:39.494 : en:Chapter 12

Скриншоты

Discussion

Comments 0

Post Your Comment

Torrent Files (Unavailable)

Please check back later to get a list of all files included in this torrent.

Alternative Torrents for 'Класс Class of AVC'.

TORRENT NAMEADDEDSIZESEEDSPEERSHEALTH
8/20/20194.2 GB00