Avengers Endgame (2019) 1080p BluRay X264 Dual Audio [Hindi DD 5.1 UPMIX - English DD 5.1] - ESUBS ~ Ranvijay

Torrent Details

Avengers Endgame (2019) 1080p BluRay x264 Dual Audio [Hindi DD 5.1 UPMIX - English DD 5.1] - ESUBS ~ Ranvijay

NAME
Avengers Endgame (2019) 1080p BluRay x264 Dual Audio [Hindi DD 5.1 UPMIX - English DD 5.1] - ESUBS ~ Ranvijay.torrent
CATEGORY
Movies
INFOHASH
02ad5ff77483ad74da995bbd086a6c96ec7827fb
SIZE
7.4 GB in 2 files
ADDED
Uploaded on 01-09-2019 by our crawler pet called "Spidey".
SWARM
0 seeders & 0 peers
RATING
This torrent has a bad rating! This torrent has BAD rating with 0 votes.

Please login to vote for this torrent.


Description







Avengers: Endgame (2019) 1080p BluRay x264 Dual Audio [Hindi DD5.1 UPMIX - English DD5.1] - ESUBS ~ Ranvijay[Team SSX]

Hindi Audio Source :- TMV (Thanks)



Buy RDP Online

General
Format                                   : Matroska
Format version                           : Version 4 / Version 2
File size                                : 7.34 GiB
Duration                                 : 3 h 1 min
Overall bit rate                         : 5 800 kb/s
Movie name                               : Avengers: Endgame (2019) 1080p BluRay x264 Dual Audio [Hindi DD5.1 UPMIX - English DD5.1] - ESUBS ~ Ranvijay

Video
ID                                       : 1
Format                                   : AVC
Format/Info                              : Advanced Video Codec
Duration                                 : 3 h 1 min
Bit rate                                 : 5 000 kb/s
Width                                    : 1 920 pixels
Height                                   : 800 pixels
Display aspect ratio                     : 2.40:1
Frame rate mode                          : Constant
Frame rate                               : 23.976 (24000/1001) FPS
Color space                              : YUV
Chroma subsampling                       : 4:2:0
Bit depth                                : 8 bits
Scan type                                : Progressive
Bits/(Pixel*Frame)                       : 0.136
Stream size                              : 6.32 GiB (86%)
Title                                    : ~Ranvijay~

Audio #1
ID                                       : 2
Format                                   : AC-3
Format/Info                              : Audio Coding 3
Codec ID                                 : A_AC3
Duration                                 : 3 h 1 min
Bit rate mode                            : Constant
Bit rate                                 : 384 kb/s
Channel(s)                               : 6 channels
Channel positions                        : Front: L C R, Side: L R, LFE
Sampling rate                            : 48.0 kHz
Frame rate                               : 31.250 FPS (1536 SPF)
Bit depth                                : 16 bits
Compression mode                         : Lossy
Stream size                              : 498 MiB (7%)
Title                                    : ~Ranvijay~
Language                                 : Hindi
Service kind                             : Complete Main
Default                                  : Yes
Forced                                   : Yes

Audio #2
ID                                       : 3
Format                                   : AC-3
Format/Info                              : Audio Coding 3
Codec ID                                 : A_AC3
Duration                                 : 3 h 1 min
Bit rate mode                            : Constant
Bit rate                                 : 384 kb/s
Channel(s)                               : 6 channels
Channel positions                        : Front: L C R, Side: L R, LFE
Sampling rate                            : 48.0 kHz
Frame rate                               : 31.250 FPS (1536 SPF)
Bit depth                                : 16 bits
Compression mode                         : Lossy
Stream size                              : 498 MiB (7%)
Title                                    : ~Ranvijay~
Language                                 : English
Service kind                             : Complete Main
Default                                  : No
Forced                                   : No

Text #1
ID                                       : 4
Format                                   : PGS
Muxing mode                              : zlib
Codec ID                                 : S_HDMV/PGS
Codec ID/Info                            : Picture based subtitle format used on BDs/HD-DVDs
Duration                                 : 3 h 0 min
Bit rate                                 : 33.9 kb/s
Count of elements                        : 5266
Stream size                              : 43.8 MiB (1%)
Title                                    : ~Ranvijay~
Language                                 : English
Default                                  : Yes
Forced                                   : Yes

Text #2
ID                                       : 5
Format                                   : PGS
Muxing mode                              : zlib
Codec ID                                 : S_HDMV/PGS
Codec ID/Info                            : Picture based subtitle format used on BDs/HD-DVDs
Duration                                 : 3 h 0 min
Bit rate                                 : 70.0 kb/s
Count of elements                        : 6520
Stream size                              : 90.6 MiB (1%)
Title                                    : ~Ranvijay~
Language                                 : English
Default                                  : No
Forced                                   : No

Menu
00:00:00.000                             : en:00:00:00.000
00:08:05.901                             : en:00:08:05.901
00:20:01.700                             : en:00:20:01.700
00:26:15.281                             : en:00:26:15.281
00:36:57.172                             : en:00:36:57.172
00:43:20.597                             : en:00:43:20.597
00:48:44.170                             : en:00:48:44.170
00:57:36.744                             : en:00:57:36.744
01:07:12.610                             : en:01:07:12.610
01:16:02.515                             : en:01:16:02.515
01:26:25.430                             : en:01:26:25.430
01:32:20.117                             : en:01:32:20.117
01:38:55.804                             : en:01:38:55.804
01:48:12.359                             : en:01:48:12.359
01:57:26.913                             : en:01:57:26.913
02:05:00.242                             : en:02:05:00.242
02:15:06.430                             : en:02:15:06.430
02:25:50.450                             : en:02:25:50.450
02:34:37.934                             : en:02:34:37.934
02:43:03.898                             : en:02:43:03.898
02:49:05.343                             : en:02:49:05.343























Don't walk as you are king, walk as you don't care who the king is....!!

Discussion

Comments 0

Post Your Comment

Files in this torrent

FILENAMESIZE
Avengers Endgame (2019) 1080p BluRay x264 Dual Audio [Hindi DD5.1 UPMIX - English DD5.1] - ESUBS ~ Ranvijay.mkv7.3 GB
Sample - Avengers Endgame (2019) 1080p BluRay x264 Dual Audio [Hindi DD5.1 UPMIX - English DD5.1] - ESUBS ~ Ranvijay.mkv40.5 MB

Alternative Torrents for 'Avengers Endgame BluRay Dual Audio Hindi DD UPMIX English DD . ESUBS Ranvijay'.

There are no alternative torrents found.