Enemy At The Gates 2001 X264 720p Esub BluRay 6 0 Dual Audio English Hindi GOPISAHI

Torrent Details

Enemy At The Gates 2001 x264 720p Esub BluRay 6 0 Dual Audio English Hindi GOPISAHI
Enemy At The Gates 2001 x264 720p Esub BluRay 6 0 Dual Audio English Hindi GOPISAHI

NAME
Enemy At The Gates 2001 x264 720p Esub BluRay 6 0 Dual Audio English Hindi GOPISAHI.torrent
CATEGORY
Movies
INFOHASH
5b42800b484253bba3b89c0faa4ee5660516e192
SIZE
1.2 GB in 1 file
ADDED
Uploaded on 12-09-2019 by our crawler pet called "Spidey".
SWARM
0 seeders & 0 peers
RATING
No votes yet.

Please login to vote for this torrent.


Description

Enemy At The Gates 2001 x264 720p Esub BluRay 6.0 Dual Audio English Hindi GOPISAHI

Format : Matroska
Format version : Version 4
File size : 1.19 GiB
Duration : 2 h 11 min
Overall bit rate : 1 298 kb/s
Movie name : Enemy at the Gates 2001 GOPISAHI

Video
ID : 1
Format : AVC
Format/Info : Advanced Video Codec
Format profile : [email protected]
Codec ID : V_MPEG4/ISO/AVC
Duration : 2 h 11 min
Bit rate : 899 kb/s
Width : 1 280 pixels
Height : 544 pixels
Display aspect ratio : 2.35:1
Frame rate mode : Constant
Frame rate : 23.976 (24000/1001) FPS
Color space : YUV
Chroma subsampling : 4:2:0
Bit depth : 8 bits
Scan type : Progressive
Bits/(Pixel*Frame) : 0.054
Stream size : 843 MiB (69%)
Title : GOPISAHI
Writing library : x264 core 157 r2935 545de2f

Audio #1
Format : AAC LC
Duration : 2 h 11 min
Bit rate : 192 kb/s
Channel(s) : 6 channels
Channel layout : L R C Cb Lb Rb
Sampling rate : 48.0 kHz
Frame rate : 46.875 FPS (1024 SPF)
Compression mode : Lossy
Delay relative to video : 982 ms
Stream size : 180 MiB (15%)
Title : GOPISAHI
Language : Hindi

Audio #2
Format : AAC LC
Duration : 2 h 11 min
Bit rate : 192 kb/s
Channel(s) : 6 channels
Channel layout : L R C Cb Lb Rb
Sampling rate : 48.0 kHz
Frame rate : 46.875 FPS (1024 SPF)
Compression mode : Lossy
Delay relative to video : -21 ms
Stream size : 180 MiB (15%)
Title : GOPISAHI
Language : English

Text #1
Format : PGS
Stream size : 21.7 MiB (2%)
Title : GOPISAHI
Language : English

Text #2
Format : PGS
Muxing mode : zlib
Codec ID : S_HDMV/PGS
Language : English

Menu
00:00:00.000 : :Chapter 1
00:02:48.168 : :Chapter 2
00:09:48.797 : :Chapter 3
00:15:12.370 : :Chapter 4
00:22:10.996 : :Chapter 5
00:34:14.219 : :Chapter 6
00:37:09.352 : :Chapter 7
00:46:19.819 : :Chapter 8
00:50:45.793 : :Chapter 9
00:56:06.613 : :Chapter 10
01:02:41.841 : :Chapter 11
01:08:25.018 : :Chapter 12
01:16:47.770 : :Chapter 13
01:22:37.494 : :Chapter 14
01:29:50.802 : :Chapter 15
01:35:52.997 : :Chapter 16
01:42:06.078 : :Chapter 17
01:55:03.397 : :Chapter 18
01:57:28.500 : :Chapter 19
02:01:21.232 : :Chapter 20





Discussion

Comments 0

Post Your Comment

Files in this torrent

FILENAMESIZE
Enemy At The Gates 2001 x264 720p Esub BluRay 6.0 Dual Audio English Hindi GOPISAHI.mkv1.2 GB

Alternative Torrents for 'Enemy At Gates Esub BluRay Dual Audio English Hindi GOPISAHI'.

TORRENT NAMEADDEDSIZESEEDSPEERSHEALTH
9/12/20191.2 GB00