Harry Potter And The Deathly Hallows Part 2 2011 IMAX 1080p

Torrent Details

Harry Potter and the Deathly Hallows Part 2 2011 IMAX 1080p

NAME
Harry Potter and the Deathly Hallows Part 2 2011 IMAX 1080p.torrent
CATEGORY
Movies
INFOHASH
9de5f71d83533add8a27c21737985c48a4c99545
SIZE
13.1 GB in 1 file
ADDED
Uploaded on 18-09-2019 by our crawler pet called "Spidey".
SWARM
0 seeders & 0 peers
RATING
No votes yet.

Please login to vote for this torrent.


Description

Информация о фильме

Название: Гарри Поттер и Дары смерти: Часть 2

Оригинальное название: Harry Potter and the Deathly Hallows: Part 2

Год выхода: 2011

Жанр: Фэнтези, приключения, экранизация

Режиссер: Дэвид Йэтс

В ролях: Дэниэл Рэдклифф, Руперт Гринт, Эмма Уотсон, Рэйф Файнс, Алан Рикман, Хелена Бонем Картер, Том Фелтон, Гари Олдман, Майкл Гэмбон, Мэгги Смит



О фильме:

В грандиозной последней главе битва между добрыми и злыми силами мира волшебников перерастает во всеобщую войну. Ставки ещё никогда не были так высоки, а поиск убежища - столь сложен. И быть может именно Гарри Поттеру придется пожертвовать всем в финальном сражении с Волан-де-Мортом. Способен ли наш герой спасти мир? И всё закончится здесь.







Страна: США, Великобритания

Студия: Warner Bros. Pictures, Heyday Films

Продолжительность: 02:10:26

Перевод: Профессиональный (полное дублирование), Авторский (одноголосый, закадровый)



Файл

Качество: Hybrid 1080p

Формат: MKV

Видео: 1920x1080, 23.976 fps, MPEG-4 AVC, 12.9 Mb/s

Аудио 1: Russian: 48 kHz, AC3, 6 ch, ~640 kbps avg - Дубляж

Аудио 2: Russian: 48 kHz, AC3, 6 ch, ~448 kbps avg - Сербин

Аудио 3: English: 48 kHz, AC3, 6 ch, ~448 kbps avg

Субтитры: Русские (forced, full), английские



MediaInfoGeneral

Unique ID : 231260373195940516262828714237612461808 (0xADFB20B57523DBCF972338BE880B0EF0)

Complete name : F:Harry.Potter.and.the.Deathly.Hallows.Part.2.2011.IMAX.1080p.mkv

Format : Matroska

Format version : Version 4

File size : 13.1 GiB

Duration : 2 h 10 min

Overall bit rate : 14.4 Mb/s

Encoded date : UTC 2019-09-18 13:48:11

Writing application : mkvmerge v8.3.0 ('Over the Horizon') 32bit

Writing library : libebml v1.3.1 + libmatroska v1.4.2



Video

ID : 1

Format : AVC

Format/Info : Advanced Video Codec

Format profile : [email protected]

Format settings : CABAC / 4 Ref Frames

Format settings, CABAC : Yes

Format settings, Reference : 4 frames

Codec ID : V_MPEG4/ISO/AVC

Duration : 2 h 10 min

Bit rate : 12.9 Mb/s

Width : 1 920 pixels

Height : 1 080 pixels

Display aspect ratio : 16:9

Frame rate mode : Constant

Frame rate : 23.976 (24000/1001) FPS

Color space : YUV

Chroma subsampling : 4:2:0

Bit depth : 8 bits

Scan type : Progressive

Bits/(Pixel*Frame) : 0.259

Stream size : 11.7 GiB (89%)

Writing library : x264 core 155 r2901 7d0ff22

Encoding settings : cabac=1 / ref=4 / deblock=1:-3:-3 / analyse=0x3:0x133 / me=umh / subme=11 / psy=1 / psy_rd=1.15:0.05 / mixed_ref=1 / me_range=32 / chroma_me=1 / trellis=2 / 8x8dct=1 / cqm=0 / deadzone=21,11 / fast_pskip=1 / chroma_qp_offset=-3 / threads=12 / lookahead_threads=2 / sliced_threads=0 / nr=0 / decimate=1 / interlaced=0 / bluray_compat=0 / constrained_intra=0 / bframes=8 / b_pyramid=2 / b_adapt=2 / b_bias=0 / direct=1 / weightb=1 / open_gop=0 / weightp=2 / keyint=240 / keyint_min=23 / scenecut=40 / intra_refresh=0 / rc_lookahead=40 / rc=crf / mbtree=0 / crf=18.0 / qcomp=0.60 / qpmin=0 / qpmax=69 / qpstep=4 / vbv_maxrate=50000 / vbv_bufsize=62500 / crf_max=0.0 / nal_hrd=none / filler=0 / ip_ratio=1.40 / pb_ratio=1.30 / aq=1:0.90

Language : English

Default : Yes

Forced : No

Color range : Limited

Color primaries : BT.709

Transfer characteristics : BT.709

Matrix coefficients : BT.709



Audio #1

ID : 2

Format : AC-3

Format/Info : Audio Coding 3

Commercial name : Dolby Digital

Codec ID : A_AC3

Duration : 2 h 10 min

Bit rate mode : Constant

Bit rate : 640 kb/s

Channel(s) : 6 channels

Channel layout : L R C LFE Ls Rs

Sampling rate : 48.0 kHz

Frame rate : 31.250 FPS (1536 SPF)

Bit depth : 16 bits

Compression mode : Lossy

Stream size : 597 MiB (4%)

Title : DUB

Language : Russian

Service kind : Complete Main

Default : Yes

Forced : No



Audio #2

ID : 3

Format : AC-3

Format/Info : Audio Coding 3

Commercial name : Dolby Digital

Codec ID : A_AC3

Duration : 2 h 10 min

Bit rate mode : Constant

Bit rate : 448 kb/s

Channel(s) : 6 channels

Channel layout : L R C LFE Ls Rs

Sampling rate : 48.0 kHz

Frame rate : 31.250 FPS (1536 SPF)

Bit depth : 16 bits

Compression mode : Lossy

Stream size : 418 MiB (3%)

Title : AVO Serbin

Language : Russian

Service kind : Complete Main

Default : No

Forced : No



Audio #3

ID : 4

Format : AC-3

Format/Info : Audio Coding 3

Commercial name : Dolby Digital

Codec ID : A_AC3

Duration : 2 h 10 min

Bit rate mode : Constant

Bit rate : 448 kb/s

Channel(s) : 6 channels

Channel layout : L R C LFE Ls Rs

Sampling rate : 48.0 kHz

Frame rate : 31.250 FPS (1536 SPF)

Bit depth : 16 bits

Compression mode : Lossy

Stream size : 418 MiB (3%)

Language : English

Service kind : Complete Main

Default : No

Forced : No



Text #1

ID : 5

Format : UTF-8

Codec ID : S_TEXT/UTF8

Codec ID/Info : UTF-8 Plain Text

Duration : 1 h 52 min

Bit rate : 0 b/s

Count of elements : 8

Stream size : 392 Bytes (0%)

Title : Forced

Language : Russian

Default : Yes

Forced : No



Text #2

ID : 6

Format : UTF-8

Codec ID : S_TEXT/UTF8

Codec ID/Info : UTF-8 Plain Text

Duration : 1 h 59 min

Bit rate : 48 b/s

Count of elements : 1040

Stream size : 42.9 KiB (0%)

Title : Full 1

Language : Russian

Default : No

Forced : No



Text #3

ID : 7

Format : UTF-8

Codec ID : S_TEXT/UTF8

Codec ID/Info : UTF-8 Plain Text

Duration : 1 h 56 min

Bit rate : 54 b/s

Count of elements : 966

Stream size : 46.8 KiB (0%)

Title : Full 2

Language : Russian

Default : No

Forced : No



Text #4

ID : 8

Format : UTF-8

Codec ID : S_TEXT/UTF8

Codec ID/Info : UTF-8 Plain Text

Duration : 1 h 54 min

Bit rate : 34 b/s

Count of elements : 924

Stream size : 28.6 KiB (0%)

Language : English

Default : No

Forced : NoПримечаниеВидеоряд смонтирован с помощью AutoOverlay AviSynth plugin на основе BD EUR и WEB-DL с амазона с целью получить наибольшее наполнение кадра. В видеоряд включены все возможные IMAX-сцены и исключены все сцены с полной обрезкой кадра по бокам. За создание гибрида спасибо random0Скриншоты

Discussion

Comments 0

Post Your Comment

Files in this torrent

FILENAMESIZE
Harry.Potter.and.the.Deathly.Hallows.Part.2.2011.IMAX.1080p.mkv13.1 GB

Alternative Torrents for 'Harry Potter and Deathly Hallows Part IMAX'.

TORRENT NAMEADDEDSIZESEEDSPEERSHEALTH
9/18/201913.1 GB00