18+Once Upon A Time In Deadwood 2019 HDRip XviD AC3

Torrent Details


18+Once Upon A Time In Deadwood<span style=color:#777> 2019</span> HDRip XviD AC3

NAME
18+Once Upon A Time In Deadwood 2019 HDRip XviD AC3.torrent
CATEGORY
Movies
INFOHASH
9a824c74abed222cec8048531469832f27e40e7f
SIZE
1 GB in 2 files
ADDED
Uploaded on 02-10-2019 by our crawler pet called "Spidey".
SWARM
0 seeders & 1 peers
RATING
No votes yet.

Please login to vote for this torrent.


Description

Quote:





******************************Thumbnail:**********************









******************************Screenshots:********************



Screenshot 1



Screenshot 2



Screenshot 3



Screenshot 4



Screenshot 5



Screenshot 6



Screenshot 7



Screenshot 8



Screenshot 9



Screenshot 0



***************************************************************

General

18+Once.Upon.A.Time.In.Deadwood.2019.HDRip.XviD.AC3.LLG.mp4

Format                                   : MPEG-4

Format profile                           : Base Media

Codec ID                                 : isom (isom/iso2/avc1/mp41)

File size                                : 1.00 GiB

Duration                                 : 1 h 25 min

Overall bit rate mode                    : Variable

Overall bit rate                         : 1 681 kb/s



Video

ID                                       : 1

Format                                   : AVC

Format/Info                              : Advanced Video Codec

Format profile                           : [email protected]

Format settings                          : CABAC / 1 Ref Frames

Format settings, CABAC                   : Yes

Format settings, Reference frames        : 1 frame

Codec ID                                 : avc1

Codec ID/Info                            : Advanced Video Coding

Duration                                 : 1 h 25 min

Bit rate mode                            : Variable

Bit rate                                 : 1 485 kb/s

Maximum bit rate                         : 4 500 kb/s

Width                                    : 720 pixels

Height                                   : 404 pixels

Display aspect ratio                     : 16:9

Frame rate mode                          : Constant

Frame rate                               : 23.976 (23976/1000) FPS

Color space                              : YUV

Chroma subsampling                       : 4:2:0

Bit depth                                : 8 bits

Scan type                                : Progressive

Bits/(Pixel*Frame)                       : 0.213

Stream size                              : 908 MiB (88%)



Audio

ID                                       : 2

Format                                   : AC-3

Format/Info                              : Audio Coding 3

Commercial name                          : Dolby Digital

Codec ID                                 : ac-3

Duration                                 : 1 h 25 min

Bit rate mode                            : Constant

Bit rate                                 : 192 kb/s

Channel(s)                               : 2 channels

Channel layout                           : L R

Sampling rate                            : 48.0 kHz

Frame rate                               : 31.250 FPS (1536 SPF)

Bit depth                                : 16 bits

Compression mode                         : Lossy

Stream size                              : 117 MiB (11%)

Language                                 : English

Service kind                             : Complete Main

Default                                  : Yes

Alternate group                          : 1





***************************************************************

Discussion

Comments 0

Post Your Comment

Files in this torrent

FILENAMESIZE
18+Once.Upon.A.Time.In.Deadwood.2019.HDRip.XviD.AC3.LLG.mp41 GB
Sample.ts29.5 MB

Alternative Torrents for 'Once Upon Time Deadwood'.

TORRENT NAMEADDEDSIZESEEDSPEERSHEALTH
10/2/20191.6 GB10
10/11/2021782 MB01
10/11/20211.4 GB01
11/16/20201.4 GB00
11/15/2020701 MB00
11/15/20203.4 GB00
3/10/20201.1 GB01
11/15/2019796 MB00
10/5/20191.3 GB00
10/2/20191 GB01
10/2/20191.2 GB00
10/2/20193.2 GB00
10/1/20192.5 GB00
10/1/2019833 MB00
10/1/2019796 MB02