007-00 Никогда не говори «никогда» Never Say Never Again 1983 BDRip-HEVC 1080p

Torrent Details


007-00 Никогда не говори «никогда» Never Say Never Again <span style=color:#777>1983</span> BDRip-HEVC 1080p

NAME
007-00 Никогда не говори «никогда» Never Say Never Again 1983 BDRip-HEVC 1080p.torrent
CATEGORY
Movies
INFOHASH
f8b339654ac9fa60d1ed1a5ee9090529910341d7
SIZE
16.2 GB in 0 files
ADDED
Uploaded on 06-10-2019 by our crawler pet called "Spidey".
SWARM
0 seeders & 0 peers
RATING
No votes yet.

Please login to vote for this torrent.


Description

Название: Никогда не говори «никогда»

Оригинальное название: Never Say Never Again

Год выхода: 1983

Жанр: боевик, триллер, приключения

Режиссер: Ирвин Кершнер

В ролях: Шон Коннери, Клаус Мария Брандауэр, Макс фон Сюдов, Барбара Каррера, Ким Бейсингер, Берни Кейси, Алек МакКоуэн, Эдвард Фокс, Памела Сейлем, Роуэн Эткинсон



О фильме: Используя непостижимый набор оружия, агент 007 собственноручно стирает с лица земли армию врагов Ее Величества. Но когда прелестная пленница втыкает нож в ребра 007, босс супершпиона решает, что настало время его лучшему агенту заняться оттачиванием своего смертельного мастерства. И вот Джеймс Бонд отправляется на лечебный курорт, а фильм «Никогда не говори никогда» готов вновь поражать ваше воображение трюками.







Страна: Великобритания, США, Германия (ФРГ)

Студия: Producers Sales Organization

Продолжительность: 02:14:05

Перевод: многоголосый, авторский



Качество: BDRip-HEVC 1080p

Кодек: HEVC (x265)

Видео: 1920x814 (2,35:1), 14,6 Мбит/сек, 0.389 бит/(Пиксели*Кадры), 23.976 (24000/1001) кадр/сек, HEVC ([email protected]@High) 10 бит

Звук:

Аудио1: AC3, 6 ch, 640 Kbps - русский многоголосый (MVO #1)

Аудио2: AC3, 6 ch, 448 Kbps - русский многоголосый (MVO #2)

Аудио3: AC3, 6 ch, 640 Kbps - русский авторский (Алексей Михалёв)

Аудио4: AC3, 6 ch, 640 Kbps - english original

Субтитры: Русские полные (SRT), English full (SRT)

Навигация по главам: Есть



Mediainfox265 info: frame I: 811, Avg QP:18.29 kb/s: 26012.50

x265 info: frame P: 26087, Avg QP:19.45 kb/s: 20861.41

x265 info: frame B: 166006, Avg QP:21.41 kb/s: 13901.10

x265 info: Weighted P-Frames: Y:17.2% UV:14.1%

x265 info: Weighted B-Frames: Y:19.0% UV:13.9%

x265 info: consecutive B-frames: 2.2% 1.9% 2.9% 19.1% 8.8% 16.5% 7.9% 15.7% 5.3% 3.5% 2.9% 4.7% 1.9% 1.4% 1.3% 2.9% 1.3%

x265 info: encoded 192904 frames in 317867.37s (0.61 fps), 14893.28 kb/s, Avg QP:21.13



Формат : Matroska

Версия формата : Version 4

Размер файла : 16,2 Гбайт

Продолжительность : 2 ч. 14 м.

Общий поток : 17,3 Мбит/сек

Название фильма : Никогда не говори «никогда»

Описание : «Никогда не говори «никогда»» - 14-й фильм из серии фильмов о Джеймсе Бонде. Этот фильм не входит в официальную «Бондиану», так как не спродюсирован семейством Брокколи. Стилизованный римейк «Шаровой молнии» 1965 года. Бонд вновь противостоит главе организации СПЕКТР. Примечательны электронные игры с болевым эффектом. Действие фильма происходит в Англии, на Багамских островах, во Франции.

Дата кодирования : UTC 2019-10-06 09:26:48

Программа кодирования : mkvmerge v37.0.0 ('Leave It') 64-bit

Библиотека кодирования : libebml v1.3.9 + libmatroska v1.5.2 / Lavf57.71.100

Примечание : Rip by OldGamer

Attachments : poster.jpg / backdrop.jpg

ACTORS : Sean Connery, Kim Basinger, Klaus Maria Brandauer, Edward Fox, Barbara Carrera, Max von Sydow, Bernie Casey, Alec McCowen, Pamela Salem, Rowan Atkinson, Gavan O'Herlihy, Ronald Pickup, Prunella Gee, Michael Medwin, Valerie Leon, Pat Roach, Milos Kirek, Saskia Cohen Tanugi, Anthony Sharp, Manning Redwood, Anthony Van Laast, Sylvia Marriott, Guido Adorni, Billy J. Mitchell, Vincent Marzello, Derek Deadman, Lucy Hornak, Joanna Dickens, Christopher Reich, Dan Meaden, Brenda Kempner, Tony Alleff, Jill Meager, John Stephen Hill, Christopher Malcolm, Marsha A. Hunt, Robert Rietti

COUNTRY : Germany, United Kingdom, United States

DATE : 1983-10-07

DIRECTOR : Irvin Kershner

ENCODING_INFO : MATROSKA,WEBM > MKV / H264 > X265 CRF 19.0 Very Slow / AC3 > COPY Безопасное / AC3 > COPY Безопасное / AC3 > COPY Безопасное / AC3 > COPY Безопасное

GENRE : Приключения, Боевик, Триллер

HD_VIDEO : 1

ITUNEXTC : 12

Язык : und

MEDIA_TYPE : 9

ORIGINAL_TITLE : Never Say Never Again

PRODUCER : Jack Schwartzman

PUBLISHER : PSO International, TaliaFilm II Productions, Woodcote

RATING : 6.10

WRITER : Lorenzo Semple Jr.



Видео

Идентификатор : 1

Формат : HEVC

Формат/Информация : High Efficiency Video Coding

Профиль формата : Main [email protected]@High

Идентификатор кодека : V_MPEGH/ISO/HEVC

Продолжительность : 2 ч. 14 м.

Битрейт : 14,9 Мбит/сек

Ширина : 1920 пикселей

Высота : 814 пикселей

Соотношение сторон : 2,35:1

Режим частоты кадров : Постоянный

Частота кадров : 23,976 (24000/1001) кадра/сек

Цветовое пространство : YUV

Субдискретизация насыщенности : 4:2:0

Битовая глубина : 10 бит

Бит/(Пиксели*Кадры) : 0.397

Размер потока : 14,0 Гбайт (86%)

Заголовок : Never Say Never Again / Rip by OldGamer

Библиотека кодирования : x265 3.1+11-de920e0a3183:[Mac OS X][clang 10.0.1][64 bit] 10bit

Настройки программы : cpuid=1111039 / frame-threads=13 / wpp / no-pmode / no-pme / no-psnr / no-ssim / log-level=3 / input-csp=1 / input-res=1920x814 / interlace=0 / total-frames=0 / level-idc=41 / high-tier=1 / uhd-bd=0 / ref=5 / allow-non-conformance / no-repeat-headers / annexb / no-aud / no-hrd / info / hash=0 / no-temporal-layers / open-gop / min-keyint=23 / keyint=240 / gop-lookahead=0 / bframes=16 / b-adapt=2 / b-pyramid / bframe-bias=0 / rc-lookahead=60 / lookahead-slices=0 / scenecut=40 / radl=0 / no-splice / no-intra-refresh / ctu=64 / min-cu-size=8 / rect / amp / max-tu-size=32 / tu-inter-depth=4 / tu-intra-depth=4 / limit-tu=1 / rdoq-level=2 / dynamic-rd=0.00 / no-ssim-rd / signhide / no-tskip / nr-intra=0 / nr-inter=0 / no-constrained-intra / no-strong-intra-smoothing / max-merge=5 / limit-refs=3 / no-limit-modes / me=3 / subme=7 / merange=57 / temporal-mvp / no-hme / weightp / weightb / no-analyze-src-pics / deblock=-3:-3 / no-sao / no-sao-non-deblock / rd=6 / no-early-skip / rskip / no-fast-intra / no-tskip-fast / no-cu-lossless / b-intra / no-splitrd-skip / rdpenalty=0 / psy-rd=2.00 / psy-rdoq=1.00 / no-rd-refine / no-lossless / cbqpoffs=0 / crqpoffs=0 / rc=crf / crf=19.0 / qcomp=0.70 / qpstep=4 / stats-write=0 / stats-read=0 / vbv-maxrate=50000 / vbv-bufsize=50000 / vbv-init=0.9 / crf-max=0.0 / crf-min=0.0 / ipratio=1.40 / pbratio=1.30 / aq-mode=2 / aq-strength=0.80 / no-cutree / zone-count=0 / no-strict-cbr / qg-size=32 / no-rc-grain / qpmax=69 / qpmin=0 / no-const-vbv / sar=1 / overscan=0 / videoformat=5 / range=0 / colorprim=1 / transfer=1 / colormatrix=1 / chromaloc=0 / display-window=0cll=0,0 / min-luma=0 / max-luma=1023 / log2-max-poc-lsb=8 / vui-timing-info / vui-hrd-info / slices=1 / no-opt-qp-pps / no-opt-ref-list-length-pps / no-multi-pass-opt-rps / scenecut-bias=0.00 / no-opt-cu-delta-qp / aq-motion / no-hdr / no-hdr-opt / no-dhdr10-opt / no-idr-recovery-sei / analysis-reuse-level=5 / scale-factor=0 / refine-intra=0 / refine-inter=0 / refine-mv=0 / refine-ctu-distortion=0 / no-limit-sao / ctu-info=0 / no-lowpass-dct / refine-analysis-type=0 / copy-pic=1 / max-ausize-factor=1.0 / no-dynamic-refine / no-single-sei / no-hevc-aq / no-svt / no-field / qp-adaptation-range=1.00

Язык : English

Default : Да

Forced : Нет

Цветовой диапазон : Limited

Основные цвета : BT.709

Характеристики трансфера : BT.709

Коэффициенты матрицы : BT.709



Аудио #1

Идентификатор : 2

Формат : AC-3

Формат/Информация : Audio Coding 3

Коммерческое название : Dolby Digital

Идентификатор кодека : A_AC3

Продолжительность : 2 ч. 13 м.

Вид битрейта : Постоянный

Битрейт : 640 Кбит/сек

Каналы : 6 каналов

Channel layout : L R C LFE Ls Rs

Частота : 48,0 КГц

Частота кадров : 31,250 кадров/сек (1536 SPF)

Битовая глубина : 16 бит

Метод сжатия : С потерями

Размер потока : 613 Мбайт (4%)

Заголовок : Профессиональный (многоголосый закадровый) MVO #1

Язык : Russian

ServiceKind : Complete Main

Default : Да

Forced : Нет



Аудио #2

Идентификатор : 3

Формат : AC-3

Формат/Информация : Audio Coding 3

Коммерческое название : Dolby Digital

Идентификатор кодека : A_AC3

Продолжительность : 2 ч. 14 м.

Вид битрейта : Постоянный

Битрейт : 448 Кбит/сек

Каналы : 6 каналов

Channel layout : L R C LFE Ls Rs

Частота : 48,0 КГц

Частота кадров : 31,250 кадров/сек (1536 SPF)

Битовая глубина : 16 бит

Метод сжатия : С потерями

Размер потока : 430 Мбайт (3%)

Заголовок : Профессиональный (многоголосый закадровый) MVO #2

Язык : Russian

ServiceKind : Complete Main

Default : Нет

Forced : Нет



Аудио #3

Идентификатор : 4

Формат : AC-3

Формат/Информация : Audio Coding 3

Коммерческое название : Dolby Digital

Идентификатор кодека : A_AC3

Продолжительность : 2 ч. 14 м.

Вид битрейта : Постоянный

Битрейт : 640 Кбит/сек

Каналы : 6 каналов

Channel layout : L R C LFE Ls Rs

Частота : 48,0 КГц

Частота кадров : 31,250 кадров/сек (1536 SPF)

Битовая глубина : 16 бит

Метод сжатия : С потерями

Размер потока : 614 Мбайт (4%)

Заголовок : AVO (Алексей Михалёв)

Язык : Russian

ServiceKind : Complete Main

Default : Нет

Forced : Нет



Аудио #4

Идентификатор : 5

Формат : AC-3

Формат/Информация : Audio Coding 3

Коммерческое название : Dolby Digital

Идентификатор кодека : A_AC3

Продолжительность : 2 ч. 14 м.

Вид битрейта : Постоянный

Битрейт : 640 Кбит/сек

Каналы : 6 каналов

Channel layout : L R C LFE Ls Rs

Частота : 48,0 КГц

Частота кадров : 31,250 кадров/сек (1536 SPF)

Битовая глубина : 16 бит

Метод сжатия : С потерями

Размер потока : 614 Мбайт (4%)

Язык : English

ServiceKind : Complete Main

Default : Нет

Forced : Нет



Текст #1

Идентификатор : 6

Формат : UTF-8

Идентификатор кодека : S_TEXT/UTF8

Идентификатор кодека/Информация : UTF-8 Plain Text

Продолжительность : 2 ч. 5 м.

Битрейт : 58 бит/сек

ElementCount : 829

Размер потока : 53,2 Кбайт (0%)

Язык : Russian

Default : Нет

Forced : Нет



Текст #2

Идентификатор : 7

Формат : UTF-8

Идентификатор кодека : S_TEXT/UTF8

Идентификатор кодека/Информация : UTF-8 Plain Text

Продолжительность : 2 ч. 12 м.

Битрейт : 33 бит/сек

ElementCount : 1073

Размер потока : 32,4 Кбайт (0%)

Язык : English

Default : Нет

Forced : Нет



Текст #3

Идентификатор : 8

Формат : UTF-8

Идентификатор кодека : S_TEXT/UTF8

Идентификатор кодека/Информация : UTF-8 Plain Text

Продолжительность : 2 ч. 12 м.

Битрейт : 37 бит/сек

ElementCount : 1132

Размер потока : 36,1 Кбайт (0%)

Язык : English

Default : Нет

Forced : Нет



Меню

00:00:00.000 : :Chapter 01

00:04:17.173 : :Chapter 02

00:07:35.455 : :Chapter 03

00:10:18.284 : :Chapter 04

00:12:53.689 : :Chapter 05

00:16:07.007 : :Chapter 06

00:23:00.462 : :Chapter 07

00:27:06.499 : :Chapter 08

00:28:33.962 : :Chapter 09

00:31:17.709 : :Chapter 10

00:37:06.974 : :Chapter 11

00:40:30.010 : :Chapter 12

00:43:05.165 : :Chapter 13

00:45:41.905 : :Chapter 14

00:49:03.023 : :Chapter 15

00:53:33.627 : :Chapter 16

00:56:18.083 : :Chapter 17

00:59:38.700 : :Chapter 18

01:04:25.820 : :Chapter 19

01:09:58.360 : :Chapter 20

01:17:21.595 : :Chapter 21

01:20:15.227 : :Chapter 22

01:25:33.920 : :Chapter 23

01:30:16.661 : :Chapter 24

01:34:48.349 : :Chapter 25

01:38:34.533 : :Chapter 26

01:41:19.156 : :Chapter 27

01:49:31.189 : :Chapter 28

01:51:40.652 : :Chapter 29

01:57:33.796 : :Chapter 30

02:04:21.996 : :Chapter 31

02:08:05.177 : :Chapter 32Скриншоты





Автор: OldGamer

Discussion

Comments 0

Post Your Comment

Torrent Files (Unavailable)

Please check back later to get a list of all files included in this torrent.

Alternative Torrents for 'Никогда не говори «никогда» Never Say Never Again HEVC'.

TORRENT NAMEADDEDSIZESEEDSPEERSHEALTH
10/6/201916.2 GB00