007-16 Лицензия на убийство Licence To Kill 1989 BDRip-HEVC 1080p

Torrent Details


007-16 Лицензия на убийство Licence to Kill<span style=color:#777> 1989</span> BDRip-HEVC 1080p

NAME
007-16 Лицензия на убийство Licence to Kill 1989 BDRip-HEVC 1080p.torrent
CATEGORY
Movies
INFOHASH
cfafce25631e1b1fa5f16bbcebdf821a269aec93
SIZE
17.3 GB in 1 file
ADDED
Uploaded on 07-10-2019 by our crawler pet called "Spidey".
SWARM
0 seeders & 1 peers
RATING
No votes yet.

Please login to vote for this torrent.


Description

Название: Лицензия на убийство

Оригинальное название: Licence to Kill

Год выхода: 1989

Жанр: боевик, триллер, приключения

Режиссер: Джон Глен

В ролях: Тимоти Далтон, Кэри Лоуэлл, Роберт Дави, Талиса Сото, Десмонд Ллевелин, Энтони Цербе, Фрэнк МакРей, Дэвид Хедисон, Роберт Браун, Кэролин Блисс



О фильме: Не успев как следует насладиться прелестями семейной жизни, молодожён, агент ЦРУ и старый друг Джеймса Бонда Феликс, на собственной шкуре познаёт всё коварство и жестокость колумбийской наркомафии. Его красавицу-жену умышленно лишают жизни, а его самого кидают на съедение акулам.



Агента 007, безусловно, не устраивает такое отношение к его друзьям и он, нарушив все инструкции и приказы, но не забыв прихватить с собой множество хитроумных примочек из шпионского арсенала, отправляется на поиски кровожадного наркобарона.







Страна: Великобритания, Мексика, США

Студия: MGM/UA Distribution Co.

Продолжительность: 02:13:20

Перевод: дублированный



Качество: BDRip-HEVC 1080p

Кодек: HEVC (x265)

Видео: 1920x816 (2,35:1), 17.3 мбит/сек, 0.460 бит/(Пиксели*Кадры), 23.976 (24000/1001) кадр/сек, HEVC (Main10@L.4.1@High) 10 бит

Звук:

Аудио1: AC3, 6 ch, 640 Kbps - русский Дублированный

Аудио2: AC3, 6 ch, 640 Kbps - english Original

Субтитры: Русские полные (SRT), English full (SRT)

Навигация по главам: Есть



Mediainfox265 [info]: frame I: 806, Avg QP:18.06 kb/s: 34375.36

x265 [info]: frame P: 33670, Avg QP:19.30 kb/s: 25335.78

x265 [info]: frame B: 157356, Avg QP:21.27 kb/s: 15479.79

x265 [info]: Weighted P-Frames: Y:11.2% UV:9.1%

x265 [info]: Weighted B-Frames: Y:8.0% UV:5.4%

x265 [info]: consecutive B-frames: 1.0% 1.8% 2.8% 32.9% 12.9% 21.5% 7.7% 15.4% 2.3% 0.7% 0.3% 0.7% 0.1% 0.1%

x265 [info]: encoded 191832 frames in 237508.43s (0.81 fps), 17289.09 kb/s, Avg QP:20.91



Format : Matroska

Format version : Version 4

File size : 17.3 GiB

Duration : 2 h 13 min

Overall bit rate : 18.6 Mb/s

Movie name : LICENCE TO KILL

Encoded date : UTC 2019-10-07 13:31:34

Writing application : mkvmerge v37.0.0 ('Leave It') 64-bit

Writing library : libebml v1.3.9 + libmatroska v1.5.2



Video

ID : 1

Format : HEVC

Format/Info : High Efficiency Video Coding

Format profile : Main 10@L4.1@High

Codec ID : V_MPEGH/ISO/HEVC

Duration : 2 h 13 min

Bit rate : 17.3 Mb/s

Width : 1 920 pixels

Height : 816 pixels

Display aspect ratio : 2.35:1

Frame rate mode : Constant

Frame rate : 23.976 (24000/1001) FPS

Color space : YUV

Chroma subsampling : 4:2:0

Bit depth : 10 bits

Bits/(Pixel*Frame) : 0.460

Stream size : 16.1 GiB (93%)

Title : Licence to Kill / Rip by OldGamer

Writing library : x265 2.9+15-81373aab81df:[Windows][GCC 8.2.0][64 bit] 10bit

Encoding settings : cpuid=1111039 / frame-threads=3 / numa-pools=12 / wpp / no-pmode / no-pme / no-psnr / no-ssim / log-level=2 / input-csp=1 / input-res=1920x816 / interlace=0 / total-frames=191832 / level-idc=41 / high-tier=1 / uhd-bd=0 / ref=5 / no-allow-non-conformance / no-repeat-headers / annexb / no-aud / no-hrd / info / hash=0 / no-temporal-layers / open-gop / min-keyint=23 / keyint=240 / gop-lookahead=0 / bframes=13 / b-adapt=2 / b-pyramid / bframe-bias=0 / rc-lookahead=80 / lookahead-slices=0 / scenecut=40 / radl=0 / no-splice / no-intra-refresh / ctu=64 / min-cu-size=8 / rect / amp / max-tu-size=32 / tu-inter-depth=4 / tu-intra-depth=4 / limit-tu=1 / rdoq-level=2 / dynamic-rd=0.00 / no-ssim-rd / signhide / no-tskip / nr-intra=0 / nr-inter=0 / no-constrained-intra / no-strong-intra-smoothing / max-merge=5 / limit-refs=3 / limit-modes / me=3 / subme=7 / merange=57 / temporal-mvp / weightp / weightb / no-analyze-src-pics / deblock=-3:-3 / no-sao / no-sao-non-deblock / rd=6 / no-early-skip / rskip / no-fast-intra / no-tskip-fast / no-cu-lossless / b-intra / no-splitrd-skip / rdpenalty=0 / psy-rd=2.00 / psy-rdoq=1.00 / no-rd-refine / no-lossless / cbqpoffs=0 / crqpoffs=0 / rc=crf / crf=19.3 / qcomp=0.70 / qpstep=4 / stats-write=0 / stats-read=0 / vbv-maxrate=50000 / vbv-bufsize=50000 / vbv-init=0.9 / crf-max=0.0 / crf-min=0.0 / ipratio=1.40 / pbratio=1.30 / aq-mode=2 / aq-strength=0.80 / no-cutree / zone-count=0 / no-strict-cbr / qg-size=32 / no-rc-grain / qpmax=69 / qpmin=0 / no-const-vbv / sar=1 / overscan=0 / videoformat=5 / range=0 / colorprim=2 / transfer=2 / colormatrix=2 / chromaloc=0 / display-window=0 / max-cll=0,0 / min-luma=0 / max-luma=1023 / log2-max-poc-lsb=8 / vui-timing-info / vui-hrd-info / slices=1 / no-opt-qp-pps / no-opt-ref-list-length-pps / no-multi-pass-opt-rps / scenecut-bias=0.00 / no-opt-cu-delta-qp / no-aq-motion / no-hdr / no-hdr-opt / no-dhdr10-opt / no-idr-recovery-sei / analysis-reuse-level=5 / scale-factor=0 / refine-intra=0 / refine-inter=0 / refine-mv=0 / no-limit-sao / ctu-info=0 / no-lowpass-dct / refine-mv-type=0 / copy-pic=1 / max-ausize-factor=1.0 / no-dynamic-refine / no-single-sei

Language : English

Default : Yes

Forced : No



Audio #1

ID : 2

Format : AC-3

Format/Info : Audio Coding 3

Commercial name : Dolby Digital

Codec ID : A_AC3

Duration : 2 h 13 min

Bit rate mode : Constant

Bit rate : 640 kb/s

Channel(s) : 6 channels

Channel layout : L R C LFE Ls Rs

Sampling rate : 48.0 kHz

Frame rate : 31.250 FPS (1536 SPF)

Compression mode : Lossy

Stream size : 610 MiB (3%)

Title : Dub

Language : Russian

Service kind : Complete Main

Default : Yes

Forced : No



Audio #2

ID : 3

Format : AC-3

Format/Info : Audio Coding 3

Commercial name : Dolby Digital

Codec ID : A_AC3

Duration : 2 h 13 min

Bit rate mode : Constant

Bit rate : 640 kb/s

Channel(s) : 6 channels

Channel layout : L R C LFE Ls Rs

Sampling rate : 48.0 kHz

Frame rate : 31.250 FPS (1536 SPF)

Compression mode : Lossy

Stream size : 610 MiB (3%)

Language : English

Service kind : Complete Main

Default : No

Forced : No



Text #1

ID : 4

Format : UTF-8

Codec ID : S_TEXT/UTF8

Codec ID/Info : UTF-8 Plain Text

Duration : 2 h 9 min

Bit rate : 52 b/s

Count of elements : 782

Stream size : 50.0 KiB (0%)

Title : v1

Language : Russian

Default : No

Forced : No



Text #2

ID : 5

Format : UTF-8

Codec ID : S_TEXT/UTF8

Codec ID/Info : UTF-8 Plain Text

Duration : 2 h 9 min

Bit rate : 43 b/s

Count of elements : 792

Stream size : 41.5 KiB (0%)

Title : v2

Language : Russian

Default : No

Forced : No



Text #3

ID : 6

Format : UTF-8

Codec ID : S_TEXT/UTF8

Codec ID/Info : UTF-8 Plain Text

Duration : 2 h 10 min

Bit rate : 39 b/s

Count of elements : 1053

Stream size : 38.1 KiB (0%)

Title : v1

Language : English

Default : No

Forced : No



Text #4

ID : 7

Format : UTF-8

Codec ID : S_TEXT/UTF8

Codec ID/Info : UTF-8 Plain Text

Duration : 2 h 9 min

Bit rate : 40 b/s

Count of elements : 1053

Stream size : 38.1 KiB (0%)

Title : v2

Language : English

Default : No

Forced : No



Menu

00:00:00.000 : en:Chapter 01

00:08:37.558 : en:Chapter 02

00:11:26.727 : en:Chapter 03

00:15:45.069 : en:Chapter 04

00:18:28.315 : en:Chapter 05

00:27:32.400 : en:Chapter 06

00:31:28.344 : en:Chapter 07

00:32:52.303 : en:Chapter 08

00:36:16.257 : en:Chapter 09

00:40:44.984 : en:Chapter 10

00:43:33.277 : en:Chapter 11

00:46:12.978 : en:Chapter 12

00:47:42.484 : en:Chapter 13

00:50:38.952 : en:Chapter 14

00:54:59.921 : en:Chapter 15

00:57:39.539 : en:Chapter 16

01:02:05.972 : en:Chapter 17

01:11:29.743 : en:Chapter 18

01:14:45.814 : en:Chapter 19

01:20:23.819 : en:Chapter 20

01:25:41.344 : en:Chapter 21

01:30:40.184 : en:Chapter 22

01:32:34.465 : en:Chapter 23

01:38:33.407 : en:Chapter 24

01:42:53.667 : en:Chapter 25

01:49:44.369 : en:Chapter 26

01:54:54.387 : en:Chapter 27

01:56:46.499 : en:Chapter 28

02:01:21.649 : en:Chapter 29

02:05:32.733 : en:Chapter 30

02:08:31.537 : en:Chapter 31

02:10:36.745 : en:Chapter 32Скриншоты 50th Anniversary Edition50th Anniversary Edition - это коллекционное издание, выпущенное в 2012 году в честь 50-тилетия Бондианы (первый фильм вышел в 1962 году). В коллекционное издание вошли все фильмы, выпущенные до 2012 года.

https://www.007.com/celebrate-the-50th-anniversary-of-james-bond/

https://www.blu-ray.com/movies/James-Bond-50th-Anniversary-BOX-Blu-ray/86148/





Автор: OldGamer

Discussion

Comments 0

Post Your Comment

Files in this torrent

FILENAMESIZE
007-16.Лицензия.на.убийство.Licence.to.Kill.1989.BDRip-HEVC.1080p.mkv17.3 GB

Alternative Torrents for 'Лицензия на убийство Licence to Kill'.

There are no alternative torrents found.