Sido - Ich & Keine Maske (2019) Flac

Torrent Details


Sido - Ich & keine Maske (2019) Flac

NAME
Sido - Ich & keine Maske (2019) Flac.torrent
CATEGORY
Music
INFOHASH
f1f5cedbe9e3ca2039f0d9decec6bb03bd448af3
SIZE
283 MB in 16 files
ADDED
Uploaded on 09-10-2019 by our crawler pet called "Spidey".
SWARM
0 seeders & 0 peers
RATING
No votes yet.

Please login to vote for this torrent.


Description





Quality-Lossless

Release-2019

Duration-00:44:36

File Size-296 MB

Genre-Rap       Dutch

Cover Size-1400px



----------------------------------------------------------------------------------------------

Analyzed: Ich & keine Maske /  Artist: Sido

----------------------------------------------------------------------------------------------

DR Peak RMS Duration Title [codec]

----------------------------------------------------------------------------------------------

DR5 -0.08 dB -9.74 dB 2:39 01 - Wie Papa [flac]

DR5 -0.09 dB -8.17 dB 3:18 02 - Junge von der Straße [flac]

DR5 -0.08 dB -6.62 dB 3:04 03 - Melatonin [flac]

DR5 -0.09 dB -9.31 dB 3:56 04 - 2002 [flac]

DR5 -0.09 dB -6.60 dB 2:45 05 - Leben vor dem Tod [flac]

DR5 -0.09 dB -6.29 dB 2:46 06 - Beste Zeit [flac]

DR6 -0.09 dB -7.75 dB 3:46 07 - High [flac]

DR5 -0.09 dB -7.92 dB 3:02 08 - Energie [flac]

DR5 -0.09 dB -6.40 dB 2:54 09 - Jedes Geheimnis [flac]

DR5 -0.09 dB -8.05 dB 3:24 10 - Papu [flac]

DR5 -0.09 dB -6.98 dB 3:18 11 - Fällig [flac]

DR6 -0.08 dB -9.25 dB 3:04 12 - Das Buch [flac]

DR5 -0.08 dB -7.19 dB 3:00 13 - Schono ke [flac]

DR6 -0.09 dB -8.07 dB 3:35 14 - Pyramiden [flac]

----------------------------------------------------------------------------------------------

Number of files:    14

Official DR value:  DR5



Sampling rate: 44100 Hz

Average bitrate: 880kbs

Bits per sample: 16 bit

Discussion

Comments 0

Post Your Comment

Files in this torrent

FILENAMESIZE
01 - Wie Papa.flac15.5 MB
02 - Junge von der Straße.flac19.7 MB
03 - Melatonin.flac18.6 MB
04 - 2002.flac25.7 MB
05 - Leben vor dem Tod.flac18.9 MB
06 - Beste Zeit.flac15.7 MB
07 - High.flac25.3 MB
08 - Energie.flac18.1 MB
09 - Jedes Geheimnis.flac19.1 MB
10 - Papu.flac22.1 MB
11 - Fällig.flac21.4 MB
12 - Das Buch.flac18.7 MB
13 - Schono ke.flac19.8 MB
14 - Pyramiden.flac23.8 MB
cover.jpg250.6 KB
dr14.txt1.5 KB

Alternative Torrents for 'Sido Ich keine Maske Flac'.

TORRENT NAMEADDEDSIZESEEDSPEERSHEALTH
10/9/2019283 MB00